Subcategories
Tags
Language
Tags

Nat King Cole Trio - Live At The Circle Room & More (1999) [Re-Up]

Posted By: Designol
Nat King Cole Trio - Live At The Circle Room & More (1999) [Re-Up]

Nat King Cole Trio - Live At The Circle Room & More (1999)
EAC | FLAC | Tracks (Cue&Log) ~ 248 Mb | Mp3 (CBR320) ~ 194 Mb | Scans included
Vocal Jazz, Swing, Vocal Pop | Label: Definitive | # DRCD 11162 | 01:12:38

This Live at the Circle Room date has been issued before, but the bonus material of the same band from a later date makes this an extra special set. For starters, the Circle Room, in the Hotel La Salle in Milwaukee, was the town's premier jazz spot in 1946. The first 17 tracks on this CD come from four performances between September 21 and 25 of that year. Cole, with Oscar Moore and Johnny Miller, had begin his singing career in earnest, and playing in front of a lounge crowd seemed like the most natural thing in the world for him. Indeed, as bottles click, and the periodic murmur of voices in the foreground appear in the mix, the listener will be transported into Cole's magical space. From Ellington's "C Jam Blues," to "I'm in the Mood for Love," "I'm Thru With Love," and "Sweet Georgia Brown," the Cole trio kicks it with grace and elegance. The latter eight cuts here are form 1949, from a date in Los Angeles, and feature Joe Comfort and Jack Constanzo as the rhythm section. While the development of Cole's voice and arrangements were well-suited for the nightclub, his harmonic adventures were curtailed in this setting.

Review by Thom Jurek, Allmusic.com

Nat King Cole Trio - Live At The Circle Room & More (1999) [Re-Up]




Nat King Cole - vocal, piano
Oscar Moore (1-17), Irving Ashby (18-25) - guitar
Johnny Miller (1-17), Joe Comfort (18-25) - bass
Jack Costanzo (18-25) - congos, congas

Recorded:
Live at The Circle Room, Hotel LaSalle, Milwaukee, WI,
September 21 (#2-5), 22 (#6-9), 23 (#10-12), 25 (#1, 13-17), 1946;
Los Angeles, CA, July 26 (#18-25), 1949.

Tracklist:

01. Opening Theme (0:40)
02. Oh, But I Do (2:58)
03. I'm Thru With Love (3:10)
04. "C" Jam Blues (3:50)
05. My Sugar Is So Refined (3:14)
06. I'm In The Mood For Love (4:11)
07. I Found A New Baby (2:35)
08. I Don't Know Why (3:04)
09. If You Can't Smile And Say Yes (2:30)
10. It's Only A Paper Moon (3:06)
11. One O'Clock Jump (3:55)
12. Everyone Is Saying Hello Again (2:23)
13. Sweet Georgia Brown (2:35)
14. Sweet Lorraine (3:26)
15. Oh, But I Do (2:44)
16. My Sugar Is So Refined (3:21)
17. Closing Theme (F.S.T.) (1:44)

Bonus Tracks:
18. My Mother Told Me (2:59)
19. Exactly Like You (2:43)
20. Part Of Me (3:25)
21. What Have You Got In Those Eyes (2:35)
22. Top Hat Bop (3:17)
23. Go Bongo (3:08)
24. Rhumba Blues (2:38)
25. Boulevard Of Broken Dreams (2:28)


Exact Audio Copy V1.0 beta 2 from 29. April 2011

EAC extraction logfile from 7. November 2011, 18:45

Nat King Cole Trio / Live at the Circle Room & More

Used drive : PLEXTOR DVDR PX-810SA Adapter: 2 ID: 0

Read mode : Secure
Utilize accurate stream : Yes
Defeat audio cache : Yes
Make use of C2 pointers : No

Read offset correction : 48
Overread into Lead-In and Lead-Out : No
Fill up missing offset samples with silence : Yes
Delete leading and trailing silent blocks : No
Null samples used in CRC calculations : Yes
Used interface : Native Win32 interface for Win NT & 2000
Gap handling : Appended to previous track

Used output format : User Defined Encoder
Selected bitrate : 256 kBit/s
Quality : High
Add ID3 tag : No
Command line compressor : C:\Archivos de programa\Exact Audio Copy\Flac\flac.exe
Additional command line options : -8 -V -T "ARTIST=%artist%" -T "TITLE=%title%" -T "ALBUM=%albumtitle%" -T "DATE=%year%" -T "TRACKNUMBER=%tracknr%" -T "TOTALTRACKS=%numtracks%" -T "GENRE=%genre%" -T "ALBUMARTIST=%albumartist%" -T "ALBUM ARTIST=%albumartist%


TOC of the extracted CD

Track | Start | Length | Start sector | End sector
––––––––––––––––––––––––––––-
1 | 0:00.00 | 0:39.64 | 0 | 2988
2 | 0:39.64 | 2:57.69 | 2989 | 16332
3 | 3:37.58 | 3:10.01 | 16333 | 30583
4 | 6:47.59 | 3:49.55 | 30584 | 47813
5 | 10:37.39 | 3:13.41 | 47814 | 62329
6 | 13:51.05 | 4:11.29 | 62330 | 81183
7 | 18:02.34 | 2:35.04 | 81184 | 92812
8 | 20:37.38 | 3:03.51 | 92813 | 106588
9 | 23:41.14 | 2:29.54 | 106589 | 117817
10 | 26:10.68 | 3:05.65 | 117818 | 131757
11 | 29:16.58 | 3:55.01 | 131758 | 149383
12 | 33:11.59 | 2:23.36 | 149384 | 160144
13 | 35:35.20 | 2:34.58 | 160145 | 171752
14 | 38:10.03 | 3:26.24 | 171753 | 187226
15 | 41:36.27 | 2:44.22 | 187227 | 199548
16 | 44:20.49 | 3:21.07 | 199549 | 214630
17 | 47:41.56 | 1:44.09 | 214631 | 222439
18 | 49:25.65 | 2:58.56 | 222440 | 235845
19 | 52:24.46 | 2:43.14 | 235846 | 248084
20 | 55:07.60 | 3:24.74 | 248085 | 263458
21 | 58:32.59 | 2:35.12 | 263459 | 275095
22 | 61:07.71 | 3:16.52 | 275096 | 289847
23 | 64:24.48 | 3:07.56 | 289848 | 303928
24 | 67:32.29 | 2:37.64 | 303929 | 315767
25 | 70:10.18 | 2:28.18 | 315768 | 326885


Track 1

Filename C:\audio-rips\01 - Opening Theme.wav

Pre-gap length 0:00:02.00

Peak level 94.4 %
Extraction speed 1.8 X
Track quality 99.7 %
Test CRC 24C4FEC5
Copy CRC 24C4FEC5
Track not present in AccurateRip database
Copy OK

Track 2

Filename C:\audio-rips\02 - Oh, But I Do.wav

Pre-gap length 0:00:02.74

Peak level 94.3 %
Extraction speed 3.8 X
Track quality 99.9 %
Test CRC 1DC98F37
Copy CRC 1DC98F37
Track not present in AccurateRip database
Copy OK

Track 3

Filename C:\audio-rips\03 - I'm Thru With Love.wav

Pre-gap length 0:00:03.00

Peak level 78.2 %
Extraction speed 4.8 X
Track quality 100.0 %
Test CRC 2735900C
Copy CRC 2735900C
Track not present in AccurateRip database
Copy OK

Track 4

Filename C:\audio-rips\04 - ''C'' Jam Blues.wav

Pre-gap length 0:00:02.74

Peak level 73.2 %
Extraction speed 4.7 X
Track quality 99.9 %
Test CRC C8373400
Copy CRC C8373400
Track not present in AccurateRip database
Copy OK

Track 5

Filename C:\audio-rips\05 - My Sugar Is So Refined.wav

Pre-gap length 0:00:03.00

Peak level 92.8 %
Extraction speed 4.8 X
Track quality 99.9 %
Test CRC A04D859C
Copy CRC A04D859C
Track not present in AccurateRip database
Copy OK

Track 6

Filename C:\audio-rips\06 - I'm In The Mood For Love.wav

Pre-gap length 0:00:03.00

Peak level 87.0 %
Extraction speed 6.1 X
Track quality 100.0 %
Test CRC 0FCF7C2F
Copy CRC 0FCF7C2F
Track not present in AccurateRip database
Copy OK

Track 7

Filename C:\audio-rips\07 - I Found A New Baby.wav

Pre-gap length 0:00:02.74

Peak level 64.6 %
Extraction speed 4.9 X
Track quality 99.9 %
Test CRC AA25B500
Copy CRC AA25B500
Track not present in AccurateRip database
Copy OK

Track 8

Filename C:\audio-rips\08 - I Don't Know Why.wav

Pre-gap length 0:00:03.00

Peak level 92.9 %
Extraction speed 6.3 X
Track quality 100.0 %
Test CRC D567E745
Copy CRC D567E745
Track not present in AccurateRip database
Copy OK

Track 9

Filename C:\audio-rips\09 - If You Can't Smile And Say Yes.wav

Pre-gap length 0:00:02.74

Peak level 81.6 %
Extraction speed 5.2 X
Track quality 99.9 %
Test CRC 594AF4DF
Copy CRC 594AF4DF
Track not present in AccurateRip database
Copy OK

Track 10

Filename C:\audio-rips\10 - It's Only A Paper Moon.wav

Pre-gap length 0:00:03.00

Peak level 94.4 %
Extraction speed 6.6 X
Track quality 100.0 %
Test CRC BC539EFC
Copy CRC BC539EFC
Track not present in AccurateRip database
Copy OK

Track 11

Filename C:\audio-rips\11 - One O'Clock Jump.wav

Pre-gap length 0:00:03.00

Peak level 94.4 %
Extraction speed 6.2 X
Track quality 99.9 %
Test CRC 4A37F949
Copy CRC 4A37F949
Track not present in AccurateRip database
Copy OK

Track 12

Filename C:\audio-rips\12 - Everyone Is Saying Hello Again.wav

Pre-gap length 0:00:03.00

Peak level 94.4 %
Extraction speed 6.7 X
Track quality 100.0 %
Test CRC E4BF1052
Copy CRC E4BF1052
Track not present in AccurateRip database
Copy OK

Track 13

Filename C:\audio-rips\13 - Sweet Georgia Brown.wav

Pre-gap length 0:00:03.00

Peak level 77.3 %
Extraction speed 6.8 X
Track quality 100.0 %
Test CRC 85622EDC
Copy CRC 85622EDC
Track not present in AccurateRip database
Copy OK

Track 14

Filename C:\audio-rips\14 - Sweet Lorraine.wav

Pre-gap length 0:00:03.00

Peak level 94.5 %
Extraction speed 7.5 X
Track quality 100.0 %
Test CRC 0097C613
Copy CRC 0097C613
Track not present in AccurateRip database
Copy OK

Track 15

Filename C:\audio-rips\15 - Oh, But I Do.wav

Pre-gap length 0:00:03.00

Peak level 85.4 %
Extraction speed 7.3 X
Track quality 100.0 %
Test CRC 2E7CE0CD
Copy CRC 2E7CE0CD
Track not present in AccurateRip database
Copy OK

Track 16

Filename C:\audio-rips\16 - My Sugar Is So Refined.wav

Pre-gap length 0:00:02.74

Peak level 94.4 %
Extraction speed 7.7 X
Track quality 100.0 %
Test CRC 1CEAE80A
Copy CRC 1CEAE80A
Track not present in AccurateRip database
Copy OK

Track 17

Filename C:\audio-rips\17 - Closing Theme (F.S.T.).wav

Pre-gap length 0:00:03.00

Peak level 94.4 %
Extraction speed 6.9 X
Track quality 100.0 %
Test CRC 72CFC18B
Copy CRC 72CFC18B
Track not present in AccurateRip database
Copy OK

Track 18

Filename C:\audio-rips\18 - My Mother Told Me.wav

Pre-gap length 0:00:02.74

Peak level 94.9 %
Extraction speed 8.0 X
Track quality 100.0 %
Test CRC 3C0E1120
Copy CRC 3C0E1120
Track not present in AccurateRip database
Copy OK

Track 19

Filename C:\audio-rips\19 - Exactly Like You.wav

Pre-gap length 0:00:02.74

Peak level 94.9 %
Extraction speed 7.9 X
Track quality 100.0 %
Test CRC 1D478C12
Copy CRC 1D478C12
Track not present in AccurateRip database
Copy OK

Track 20

Filename C:\audio-rips\20 - Part Of Me.wav

Pre-gap length 0:00:02.74

Peak level 94.9 %
Extraction speed 8.5 X
Track quality 100.0 %
Test CRC F9FA2A2A
Copy CRC F9FA2A2A
Track not present in AccurateRip database
Copy OK

Track 21

Filename C:\audio-rips\21 - What Have You Got In Those Eyes.wav

Pre-gap length 0:00:03.00

Peak level 94.9 %
Extraction speed 8.1 X
Track quality 100.0 %
Test CRC 9F9868FE
Copy CRC 9F9868FE
Track not present in AccurateRip database
Copy OK

Track 22

Filename C:\audio-rips\22 - Top Hat Bop.wav

Pre-gap length 0:00:03.00

Peak level 94.9 %
Extraction speed 8.6 X
Track quality 100.0 %
Test CRC A38E4F2F
Copy CRC A38E4F2F
Track not present in AccurateRip database
Copy OK

Track 23

Filename C:\audio-rips\23 - Go Bongo.wav

Pre-gap length 0:00:03.00

Peak level 94.9 %
Extraction speed 8.7 X
Track quality 100.0 %
Test CRC CBA12A92
Copy CRC CBA12A92
Track not present in AccurateRip database
Copy OK

Track 24

Filename C:\audio-rips\24 - Rhumba Blues.wav

Pre-gap length 0:00:03.00

Peak level 94.9 %
Extraction speed 8.5 X
Track quality 100.0 %
Test CRC AA80D463
Copy CRC AA80D463
Track not present in AccurateRip database
Copy OK

Track 25

Filename C:\audio-rips\25 - Boulevard Of Broken Dreams.wav

Pre-gap length 0:00:02.74

Peak level 94.9 %
Extraction speed 8.5 X
Track quality 100.0 %
Test CRC B05DFC8D
Copy CRC B05DFC8D
Track not present in AccurateRip database
Copy OK


None of the tracks are present in the AccurateRip database

No errors occurred

End of status report

==== Log checksum 4B3FDEF4E49522E381810B1B21EA097194332A43DF3C566FBCACEB5AF876EF8C ====

[CUETools log; Date: 29.06.2017 14:42:59; Version: 2.1.4]
[CTDB TOCID: PelBCHUDe3qFWcQXEwusl7W.5N4-] found.
Track | CTDB Status
1 | (2/2) Accurately ripped
2 | (2/2) Accurately ripped
3 | (2/2) Accurately ripped
4 | (2/2) Accurately ripped
5 | (2/2) Accurately ripped
6 | (2/2) Accurately ripped
7 | (2/2) Accurately ripped
8 | (2/2) Accurately ripped
9 | (2/2) Accurately ripped
10 | (1/2) Accurately ripped
11 | (2/2) Accurately ripped
12 | (2/2) Accurately ripped
13 | (2/2) Accurately ripped
14 | (2/2) Accurately ripped
15 | (2/2) Accurately ripped
16 | (2/2) Accurately ripped
17 | (2/2) Accurately ripped
18 | (2/2) Accurately ripped
19 | (2/2) Accurately ripped
20 | (2/2) Accurately ripped
21 | (2/2) Accurately ripped
22 | (2/2) Accurately ripped
23 | (2/2) Accurately ripped
24 | (2/2) Accurately ripped
25 | (2/2) Accurately ripped
[AccurateRip ID: 0040ea32-0496f6a7-7e110619] found.
Track [ CRC | V2 ] Status
01 [ca48686d|9226c729] (0+4/4) Accurately ripped
02 [6881d3cb|797018ea] (0+4/4) Accurately ripped
03 [7958e51c|8151e696] (0+4/4) Accurately ripped
04 [2a444adb|992bb1cb] (0+4/4) Accurately ripped
05 [053c1a25|33d97f7d] (0+4/4) Accurately ripped
06 [08677894|e176acd0] (0+4/4) Accurately ripped
07 [310d4dc5|b78fdc7e] (0+4/4) Accurately ripped
08 [7f5f9e43|3ea7c74c] (0+4/4) Accurately ripped
09 [f2bbf094|a6eeb90c] (0+4/4) Accurately ripped
10 [1576c103|b0ec7a8b] (0+4/4) Accurately ripped
11 [3f3a5b09|9ac6ef52] (0+4/4) Accurately ripped
12 [ad4d49b9|7fe5c282] (0+4/4) Accurately ripped
13 [bc3b3323|385a696a] (0+4/4) Accurately ripped
14 [59cb1c4e|39d31200] (0+4/4) Accurately ripped
15 [f20ebb40|ecdcfc15] (0+4/4) Accurately ripped
16 [5f68bf3e|037a96f1] (0+4/4) Accurately ripped
17 [b3c1019a|c9ca2e2b] (0+4/4) Accurately ripped
18 [eab29583|c53d8459] (0+4/4) Accurately ripped
19 [cbf6bfe6|effceca2] (0+4/4) Accurately ripped
20 [4b39f6a5|d4343eea] (0+4/4) Accurately ripped
21 [1d22090a|d7693788] (0+4/4) Accurately ripped
22 [0d813d26|61bef1d0] (0+4/4) Accurately ripped
23 [3501843e|d3025191] (0+4/4) Accurately ripped
24 [7bca5891|b305c042] (0+4/4) Accurately ripped
25 [e71fc038|43574493] (0+4/4) Accurately ripped

Track Peak [ CRC32 ] [W/O NULL] [ LOG ]
– 94,9 [957FCE5A] [9C8F8189]
01 94,4 [24C4FEC5] [23A667A3] CRC32
02 94,3 [1DC98F37] [C310B368] CRC32
03 78,2 [2735900C] [FCB53DD1] CRC32
04 73,2 [C8373400] [251E3FAE] CRC32
05 92,8 [A04D859C] [F71B33AC] CRC32
06 87,0 [0FCF7C2F] [CCEC47B9] CRC32
07 64,6 [AA25B500] [E63D2B74] CRC32
08 92,9 [D567E745] [51FC74FB] CRC32
09 81,6 [594AF4DF] [19FCDB4F] CRC32
10 94,4 [BC539EFC] [89F211CC] CRC32
11 94,4 [4A37F949] [344BDDFF] CRC32
12 94,4 [E4BF1052] [0D05DCFA] CRC32
13 77,3 [85622EDC] [9C4A1A98] CRC32
14 94,5 [0097C613] [A29351C6] CRC32
15 85,4 [2E7CE0CD] [9C5C82F1] CRC32
16 94,4 [1CEAE80A] [66204DF6] CRC32
17 94,4 [72CFC18B] [B4E29FF0] CRC32
18 94,9 [3C0E1120] [425F4C70] CRC32
19 94,9 [1D478C12] [CC6A043E] CRC32
20 94,9 [F9FA2A2A] [E807DB9A] CRC32
21 94,9 [9F9868FE] [A152DE6A] CRC32
22 94,9 [A38E4F2F] [5D26EFD1] CRC32
23 94,9 [CBA12A92] [1A2348F1] CRC32
24 94,9 [AA80D463] [5363E9A3] CRC32
25 94,9 [B05DFC8D] [52248FFF] CRC32

foobar2000 1.2 / Dynamic Range Meter 1.1.1
log date: 2017-06-30 17:43:11

––––––––––––––––––––––––––––––––––––––––
Analyzed: Nat King Cole Trio / Live At The Circle Room & More
––––––––––––––––––––––––––––––––––––––––

DR Peak RMS Duration Track
––––––––––––––––––––––––––––––––––––––––
DR12 -0.50 dB -15.62 dB 0:40 01-Opening Theme
DR13 -0.51 dB -14.94 dB 2:58 02-Oh, But I Do
DR12 -2.13 dB -17.70 dB 3:10 03-I'm Thru With Love
DR9 -2.71 dB -14.37 dB 3:50 04-''C'' Jam Blues
DR11 -0.64 dB -14.53 dB 3:14 05-My Sugar Is So Refined
DR12 -1.20 dB -15.66 dB 4:11 06-I'm In The Mood For Love
DR11 -3.79 dB -17.23 dB 2:35 07-I Found A New Baby
DR16 -0.64 dB -18.97 dB 3:04 08-I Don't Know Why
DR13 -1.76 dB -16.72 dB 2:30 09-If You Can't Smile And Say Yes
DR12 -0.50 dB -15.10 dB 3:06 10-It's Only A Paper Moon
DR12 -0.50 dB -14.87 dB 3:55 11-One O'Clock Jump
DR14 -0.50 dB -17.13 dB 2:23 12-Everyone Is Saying Hello Again
DR12 -2.23 dB -16.51 dB 2:35 13-Sweet Georgia Brown
DR14 -0.49 dB -17.04 dB 3:26 14-Sweet Lorraine
DR12 -1.37 dB -16.07 dB 2:44 15-Oh, But I Do
DR14 -0.50 dB -17.00 dB 3:21 16-My Sugar Is So Refined
DR13 -0.50 dB -15.91 dB 1:44 17-Closing Theme (F.S.T.)
DR14 -0.45 dB -17.59 dB 2:59 18-My Mother Told Me
DR13 -0.45 dB -15.85 dB 2:43 19-Exactly Like You
DR14 -0.45 dB -18.09 dB 3:25 20-Part Of Me
DR15 -0.45 dB -19.65 dB 2:35 21-What Have You Got In Those Eyes
DR12 -0.45 dB -18.00 dB 3:17 22-Top Hat Bop
DR16 -0.45 dB -19.02 dB 3:08 23-Go Bongo
DR13 -0.45 dB -17.02 dB 2:38 24-Rhumba Blues
DR12 -0.45 dB -14.98 dB 2:28 25-Boulevard Of Broken Dreams
––––––––––––––––––––––––––––––––––––––––

Number of tracks: 25
Official DR value: DR13

Samplerate: 44100 Hz
Channels: 2
Bits per sample: 16
Bitrate: 482 kbps
Codec: FLAC
================================================================================

Nat King Cole Trio - Live At The Circle Room & More (1999) [Re-Up]

Nat King Cole Trio - Live At The Circle Room & More (1999) [Re-Up]

All thanks to original releaser

More interesting music in My Blog