Tags
Language
Tags

Nat King Cole - Just One Of Those Things (And More) (1957) [Reissue 1987]

Posted By: gribovar
Nat King Cole - Just One Of Those Things (And More) (1957) [Reissue 1987]

Nat King Cole - Just One Of Those Things (And More) (1957) [Reissue 1987]
EAC Rip | FLAC (tracks+.cue+log) - 227 MB | Covers (7 MB) included
Genre: Vocal Jazz | RAR 3% Rec. | Label: Capitol Records (CDP 7 46649 2)

Just One of Those Things is a theme album comparable to one of Frank Sinatra's uptempo swing albums of the same period (Come Fly with Me, etc.), and employs the same arranger/conductor, Billy May. Nat King Cole is a bit less effective than Sinatra at uptempo material; he tends to undersing these sprightly standards, and May saves his dramatic horn charts and percussion shots for moments when Cole is away from the microphone. Even so, by the fifth track, "These Foolish Things Remind Me of You," May has retreated to ballad time, and though his embellishments threaten to break out behind the singer, Cole gives an assured, unhurried performance. And that's the point: that Cole has tamed the rambunctious May does not mean he doesn't give wonderful interpretations to some wonderful songs: "Don't Get Around Much Anymore," "Just One of Those Things," "The Song Is Ended (But the Melody Lingers On)." And the light-handed swing supports those efforts well.
Tracklist:
01. When Your Lover Has Gone
02. A Cottage For Sale
03. Who's Sorry Now?
04. Once In A While
05. These Foolish Things Remind Me Of You
06. Just For The Fun Of It
07. Don't Get Around Much Anymore
08. I Understand
09. Just One Of Those Things
10. The Song Is Ended (But The Melody Lingers On)
11. I Should Care
12. The Party's Over
13. Day In - Day Out
14. I'm Gonna Sit Right Down (And Write Myself A Letter)
15. Something Makes Me Want To Dance With You

Total time: 41:33

Exact Audio Copy V1.0 beta 3 from 29. August 2011

EAC extraction logfile from 23. June 2012, 6:56

Nat King Cole / Just One Of The Things (And More)

Used drive : ASUS DRW-24B3ST Adapter: 2 ID: 1

Read mode : Secure
Utilize accurate stream : Yes
Defeat audio cache : Yes
Make use of C2 pointers : No

Read offset correction : 6
Overread into Lead-In and Lead-Out : No
Fill up missing offset samples with silence : Yes
Delete leading and trailing silent blocks : No
Null samples used in CRC calculations : Yes
Used interface : Native Win32 interface for Win NT & 2000
Gap handling : Appended to previous track

Used output format : User Defined Encoder
Selected bitrate : 128 kBit/s
Quality : High
Add ID3 tag : No
Command line compressor : C:\Program Files\Exact Audio Copy\Flac\flac.exe
Additional command line options : -V -8 -T "Genre=%genre%" -T "Artist=%artist%" -T "Title=%title%" -T "Album=%albumtitle%" -T "Date=%year%" -T "Tracknumber=%tracknr%" -T "Comment=%comment%" %source%


TOC of the extracted CD

Track | Start | Length | Start sector | End sector
––––––––––––––––––––––––––––-
1 | 0:00.37 | 2:34.43 | 37 | 11629
2 | 2:35.05 | 3:00.35 | 11630 | 25164
3 | 5:35.40 | 3:00.20 | 25165 | 38684
4 | 8:35.60 | 2:50.35 | 38685 | 51469
5 | 11:26.20 | 3:49.45 | 51470 | 68689
6 | 15:15.65 | 2:37.52 | 68690 | 80516
7 | 17:53.42 | 3:13.70 | 80517 | 95061
8 | 21:07.37 | 2:27.65 | 95062 | 106151
9 | 23:35.27 | 2:17.05 | 106152 | 116431
10 | 25:52.32 | 2:49.20 | 116432 | 129126
11 | 28:41.52 | 2:49.30 | 129127 | 141831
12 | 31:31.07 | 2:45.73 | 141832 | 154279
13 | 34:17.05 | 2:27.15 | 154280 | 165319
14 | 36:44.20 | 2:38.30 | 165320 | 177199
15 | 39:22.50 | 2:09.15 | 177200 | 186889


Track 1

Filename E:\Nat King Cole - Just One Of The Things (And More) (1987)\01. When Your Lover Has Gone.wav

Pre-gap length 0:00:02.37

Peak level 94.4 %
Extraction speed 3.2 X
Track quality 100.0 %
Test CRC 84403C09
Copy CRC 84403C09
Accurately ripped (confidence 2) [A8B98E3E] (AR v1)
Copy OK

Track 2

Filename E:\Nat King Cole - Just One Of The Things (And More) (1987)\02. A Cottage For Sale.wav

Pre-gap length 0:00:02.67

Peak level 83.0 %
Extraction speed 3.7 X
Track quality 100.0 %
Test CRC 17317690
Copy CRC 17317690
Accurately ripped (confidence 2) [F1DDBBC8] (AR v1)
Copy OK

Track 3

Filename E:\Nat King Cole - Just One Of The Things (And More) (1987)\03. Who's Sorry Now.wav

Pre-gap length 0:00:02.12

Peak level 85.6 %
Extraction speed 3.0 X
Track quality 99.9 %
Test CRC 65DD22D8
Copy CRC 65DD22D8
Accurately ripped (confidence 2) [BB4BFCC2] (AR v1)
Copy OK

Track 4

Filename E:\Nat King Cole - Just One Of The Things (And More) (1987)\04. Once In A While.wav

Pre-gap length 0:00:02.37

Peak level 58.6 %
Extraction speed 4.1 X
Track quality 100.0 %
Test CRC 19A359CA
Copy CRC 19A359CA
Accurately ripped (confidence 2) [01564309] (AR v1)
Copy OK

Track 5

Filename E:\Nat King Cole - Just One Of The Things (And More) (1987)\05. These Foolish Things Remind Me Of You.wav

Pre-gap length 0:00:02.27

Peak level 86.0 %
Extraction speed 4.6 X
Track quality 100.0 %
Test CRC C74862C8
Copy CRC C74862C8
Accurately ripped (confidence 2) [8B47149C] (AR v1)
Copy OK

Track 6

Filename E:\Nat King Cole - Just One Of The Things (And More) (1987)\06. Just For The Fun Of It.wav

Pre-gap length 0:00:02.42

Peak level 62.8 %
Extraction speed 3.4 X
Track quality 99.9 %
Test CRC E8A3F058
Copy CRC E8A3F058
Accurately ripped (confidence 2) [5164357B] (AR v1)
Copy OK

Track 7

Filename E:\Nat King Cole - Just One Of The Things (And More) (1987)\07. Don't Get Around Much Anymore.wav

Pre-gap length 0:00:01.64

Peak level 79.9 %
Extraction speed 4.9 X
Track quality 100.0 %
Test CRC CD1FAC60
Copy CRC CD1FAC60
Accurately ripped (confidence 2) [6AB49C93] (AR v1)
Copy OK

Track 8

Filename E:\Nat King Cole - Just One Of The Things (And More) (1987)\08. I Understand.wav

Pre-gap length 0:00:01.52

Peak level 92.0 %
Extraction speed 4.9 X
Track quality 100.0 %
Test CRC 84FA03CA
Copy CRC 84FA03CA
Accurately ripped (confidence 2) [AE07BFAF] (AR v1)
Copy OK

Track 9

Filename E:\Nat King Cole - Just One Of The Things (And More) (1987)\09. Just One Of Those Things.wav

Pre-gap length 0:00:02.09

Peak level 68.3 %
Extraction speed 4.9 X
Track quality 100.0 %
Test CRC 53A3CD7C
Copy CRC 53A3CD7C
Accurately ripped (confidence 2) [640F5D6C] (AR v1)
Copy OK

Track 10

Filename E:\Nat King Cole - Just One Of The Things (And More) (1987)\10. The Song Is Ended.wav

Pre-gap length 0:00:02.24

Peak level 69.5 %
Extraction speed 5.3 X
Track quality 100.0 %
Test CRC 1133345F
Copy CRC 1133345F
Accurately ripped (confidence 2) [9CBF0AE0] (AR v1)
Copy OK

Track 11

Filename E:\Nat King Cole - Just One Of The Things (And More) (1987)\11. I Should Care.wav

Pre-gap length 0:00:02.42

Peak level 75.8 %
Extraction speed 5.4 X
Track quality 100.0 %
Test CRC 027E718B
Copy CRC 027E718B
Accurately ripped (confidence 2) [E6819A6D] (AR v1)
Copy OK

Track 12

Filename E:\Nat King Cole - Just One Of The Things (And More) (1987)\12. The Party's Over.wav

Pre-gap length 0:00:01.64

Peak level 69.6 %
Extraction speed 4.2 X
Track quality 99.9 %
Test CRC FA251A62
Copy CRC FA251A62
Accurately ripped (confidence 2) [84C0CBC7] (AR v1)
Copy OK

Track 13

Filename E:\Nat King Cole - Just One Of The Things (And More) (1987)\13. Day In - Day Out (Bonus Track - from ''Let's Face The Music'' LP).wav

Pre-gap length 0:00:02.62

Peak level 77.0 %
Extraction speed 5.5 X
Track quality 100.0 %
Test CRC 43EBAEA0
Copy CRC 43EBAEA0
Accurately ripped (confidence 2) [693E779A] (AR v1)
Copy OK

Track 14

Filename E:\Nat King Cole - Just One Of The Things (And More) (1987)\14. I'm Gonna Sit Right Down (And Write Myself A Letter) - (Bonus Track - from ''Let's Face The Music'' LP).wav

Pre-gap length 0:00:02.05

Peak level 96.4 %
Extraction speed 5.7 X
Track quality 100.0 %
Test CRC 024958CC
Copy CRC 024958CC
Accurately ripped (confidence 2) [1CB6097D] (AR v1)
Copy OK

Track 15

Filename E:\Nat King Cole - Just One Of The Things (And More) (1987)\15. Something Makes Me Want To Dance With You (Bonus Track - from ''Let's Face The Music'' LP).wav

Pre-gap length 0:00:01.70

Peak level 56.2 %
Extraction speed 5.7 X
Track quality 100.0 %
Test CRC 8787411C
Copy CRC 8787411C
Accurately ripped (confidence 2) [0716F909] (AR v1)
Copy OK


All tracks accurately ripped

No errors occurred

End of status report

==== Log checksum B5EE9671D8831211BFB60C7BF892B482FC9D34DB637CBC7FBC5F68AFEF0CE072 ====

[CUETools log; Date: 16.11.2018 20:57:16; Version: 2.1.4]
Pregap length 00:00:37.
[CTDB TOCID: hKscFIW.BxgbsMV620Zevlylpvo-] found.
Track | CTDB Status
1 | (11/11) Accurately ripped
2 | (11/11) Accurately ripped
3 | (11/11) Accurately ripped
4 | (11/11) Accurately ripped
5 | (11/11) Accurately ripped
6 | (10/11) Accurately ripped
7 | (11/11) Accurately ripped
8 | (10/11) Accurately ripped
9 | ( 3/11) Accurately ripped, or (8/11) differs in 1 samples @01:03:40
10 | (10/11) Accurately ripped
11 | (11/11) Accurately ripped
12 | (11/11) Accurately ripped
13 | (11/11) Accurately ripped
14 | (10/11) Accurately ripped
15 | (11/11) Accurately ripped
[AccurateRip ID: 0017a0c9-010a619e-d609bb0f] found.
Track [ CRC | V2 ] Status
01 [a8b98e3e|792a3c08] (02+03/16) Accurately ripped
02 [f1ddbbc8|7c77efe9] (02+03/16) Accurately ripped
03 [bb4bfcc2|2e666de3] (02+03/16) Accurately ripped
04 [01564309|7d2654c3] (02+03/16) Accurately ripped
05 [8b47149c|e63b5eba] (02+03/16) Accurately ripped
06 [5164357b|ad967c82] (02+03/16) Accurately ripped
07 [6ab49c93|90ca6af5] (02+03/16) Accurately ripped
08 [ae07bfaf|6540aad6] (02+03/16) Accurately ripped
09 [640f5d6c|2b737ee6] (02+03/17) Accurately ripped
10 [9cbf0ae0|e0e0eb56] (02+03/15) Accurately ripped
11 [e6819a6d|7877fe3d] (02+03/16) Accurately ripped
12 [84c0cbc7|2450cf87] (02+03/16) Accurately ripped
13 [693e779a|d0447cf8] (02+03/17) Accurately ripped
14 [1cb6097d|c76af678] (02+03/16) Accurately ripped
15 [0716f909|00b15927] (02+03/17) Accurately ripped
Offsetted by 1517:
01 [b7fde3e1] (07/16) Accurately ripped
02 [ee4352c0] (07/16) Accurately ripped
03 [96952d6f] (07/16) Accurately ripped
04 [06bdc1b3] (07/16) Accurately ripped
05 [58212977] (07/16) Accurately ripped
06 [c074ddde] (07/16) Accurately ripped
07 [df1a7bbd] (07/16) Accurately ripped
08 [e22e66d3] (07/16) Accurately ripped
09 [f3817404] (00/17) No match (V2 was not tested)
10 [c32c12e5] (06/15) Accurately ripped
11 [a0c1b6c7] (07/16) Accurately ripped
12 [075fa653] (06/16) Accurately ripped
13 [16040cfd] (07/17) Accurately ripped
14 [5b698284] (07/16) Accurately ripped
15 [25eec9b1] (07/17) Accurately ripped

Track Peak [ CRC32 ] [W/O NULL] [ LOG ]
– 96,4 [23AB04A7] [D90100BA]
01 94,4 [84403C09] [60763AB5] CRC32
02 83,0 [17317690] [76F4D109] CRC32
03 85,6 [65DD22D8] [66ED0B75] CRC32
04 58,6 [19A359CA] [26927B12] CRC32
05 86,0 [C74862C8] [4FEB039B] CRC32
06 62,8 [E8A3F058] [295C10D3] CRC32
07 79,9 [CD1FAC60] [62CF9854] CRC32
08 92,0 [84FA03CA] [0401D393] CRC32
09 68,3 [53A3CD7C] [178718F2] CRC32
10 69,5 [1133345F] [5737D218] CRC32
11 75,8 [027E718B] [679650A9] CRC32
12 69,6 [FA251A62] [12F2E1DF] CRC32
13 77,0 [43EBAEA0] [E9D88F97] CRC32
14 96,4 [024958CC] [6CAC8F17] CRC32
15 56,2 [8787411C] [D38EC7C1] CRC32

Thanks to duppyB

See also:
The Nat King Cole Trio - The B...ocal Classics (1947-50) (1996)
Nat "King" Cole - 1940-1941 (1994)
Nat King Cole Trio - Hit That Jive, Jack [Recorded 1936-1941] (1996)