Tags
Language
Tags

Nat King Cole Trio - Hit That Jive, Jack [Recorded 1936-1941] (1996)

Posted By: gribovar
Nat King Cole Trio - Hit That Jive, Jack [Recorded 1936-1941] (1996)

Nat King Cole Trio - Hit That Jive, Jack [Recorded 1936-1941] (1996)
EAC Rip | APE (image+.cue+log) - 197 MB | Covers - 19 MB
Genre: Jazz, Vocal Jazz, Swing | RAR 3% Rec. | Label: MCA Records/GRP Records/Decca (GRD-662)

Nat "King" Cole's 16 trio recordings for Decca have been reissued many times (including on this CD), and rightfully so. Cole was already one of the top swing pianists by 1940, his vocal style (best displayed on his first hit "Sweet Lorraine") was quite recognizable, and his trio with guitarist Oscar Moore and bassist Wesley Prince had a memorable sound. Cole's Decca records (his first for a major label) were a breakthrough for Nat, although his Capitol recordings (which started in 1943) really paved the way toward major success. In addition to "Sweet Lorraine," highlights of this fine CD include "Honeysuckle Rose," "I Like to Riff," and "Hit That Jive, Jack" (which has the Trio's most famous group vocal).
Tracklist:
01. Sweet Lorraine
02. Honeysuckle Rose
03. Gone With The Draft
04. Gone With The Draft (Alternate Take)
05. This Side Up
06. Babs
07. Scotchin' With The Soda
08. Slow Down
09. Early Morning Blues
10. This Will Make You Laugh
11. Stop, The Red Light's On
12. Hit The Ramp
13. I Like To Riff
14. Call The Police
15. Are You Fer It?
16. That Ain't Right
17. Hit That Jive, Jack
18. Honey Hush
19. Honey Hush (Alternate Take)
20. Stompin' At The Panama
21. (Bedtime) Sleep Baby, Sleep
22. Thunder

Total time: 01:02:30

Exact Audio Copy V0.99 prebeta 4 from 23. January 2008

Отчёт EAC об извлечении, выполненном 9. апреля 2009, 20:41

Nat King Cole Trio / Hit That Jive, Jack

Дисковод: PIONEER DVD-RW DVR-108 Adapter: 4 ID: 1

Режим чтения : Достоверность
Использование точного потока : Да
Отключение кэша аудио : Да
Использование указателей C2 : Нет

Коррекция смещения при чтении : 48
Способность читать области Lead-in и Lead-out : Нет
Заполнение пропущенных сэмплов тишиной : Да
Удаление блоков с тишиной в начале и конце : Нет
При вычислениях CRC использовались нулевые сэмплы : Да
Интерфейс : Встроенный Win32-интерфейс для Win NT/2000

Выходной формат : Внутренние WAV-операции
Формат сэмплов : 44.100 Гц; 16 бит; стерео


TOC извлечённого CD

Трек | Старт | Длительность | Начальный сектор | Конечный сектор
––––––––––––––––––––––––––––––––––-
1 | 0:00.00 | 2:54.20 | 0 | 13069
2 | 2:54.20 | 2:31.60 | 13070 | 24454
3 | 5:26.05 | 2:41.22 | 24455 | 36551
4 | 8:07.27 | 2:41.65 | 36552 | 48691
5 | 10:49.17 | 2:44.40 | 48692 | 61031
6 | 13:33.57 | 2:23.28 | 61032 | 71784
7 | 15:57.10 | 2:29.20 | 71785 | 82979
8 | 18:26.30 | 3:06.30 | 82980 | 96959
9 | 21:32.60 | 2:42.30 | 96960 | 109139
10 | 24:15.15 | 3:12.55 | 109140 | 123594
11 | 27:27.70 | 2:34.72 | 123595 | 135216
12 | 30:02.67 | 3:17.33 | 135217 | 150024
13 | 33:20.25 | 2:43.72 | 150025 | 162321
14 | 36:04.22 | 3:06.03 | 162322 | 176274
15 | 39:10.25 | 3:06.65 | 176275 | 190289
16 | 42:17.15 | 3:12.37 | 190290 | 204726
17 | 45:29.52 | 2:54.63 | 204727 | 217839
18 | 48:24.40 | 2:49.57 | 217840 | 230571
19 | 51:14.22 | 2:47.65 | 230572 | 243161
20 | 54:02.12 | 2:56.03 | 243162 | 256364
21 | 56:58.15 | 2:49.70 | 256365 | 269109
22 | 59:48.10 | 2:41.47 | 269110 | 281231


Характеристики диапазона извлечения и сообщения об ошибках

Выбранный диапазон

Имя файла J:\New Torrents\Nat King Cole Trio - Hit That Jive, Jack\Nat King Cole Trio - Hit That Jive, Jack.wav

Пиковый уровень 100.0 %
Качество диапазона 100.0 %
CRC копии EE467F50
Копирование… OK

Ошибок не произошло


AccurateRip: сводка

Трек 1 нет в базе данных
Трек 2 нет в базе данных
Трек 3 нет в базе данных
Трек 4 нет в базе данных
Трек 5 нет в базе данных
Трек 6 нет в базе данных
Трек 7 нет в базе данных
Трек 8 нет в базе данных
Трек 9 нет в базе данных
Трек 10 нет в базе данных
Трек 11 нет в базе данных
Трек 12 нет в базе данных
Трек 13 нет в базе данных
Трек 14 нет в базе данных
Трек 15 нет в базе данных
Трек 16 нет в базе данных
Трек 17 нет в базе данных
Трек 18 нет в базе данных
Трек 19 нет в базе данных
Трек 20 нет в базе данных
Трек 21 нет в базе данных
Трек 22 нет в базе данных

Ни одного трека нет в базе AccurateRip

Конец отчёта

[CUETools log; Date: 16.11.2018 17:35:46; Version: 2.1.4]
[CTDB TOCID: PkfeaM8DDfvTrIPTnYnL_MHOeT0-] found.
Track | CTDB Status
1 | (10/10) Accurately ripped
2 | (10/10) Accurately ripped
3 | (10/10) Accurately ripped
4 | (10/10) Accurately ripped
5 | (10/10) Accurately ripped
6 | (10/10) Accurately ripped
7 | (10/10) Accurately ripped
8 | (10/10) Accurately ripped
9 | (10/10) Accurately ripped
10 | (10/10) Accurately ripped
11 | (10/10) Accurately ripped
12 | (10/10) Accurately ripped
13 | (10/10) Accurately ripped
14 | (10/10) Accurately ripped
15 | (10/10) Accurately ripped
16 | (10/10) Accurately ripped
17 | (10/10) Accurately ripped
18 | (10/10) Accurately ripped
19 | (10/10) Accurately ripped
20 | (10/10) Accurately ripped
21 | (10/10) Accurately ripped
22 | (10/10) Accurately ripped
[AccurateRip ID: 00309af6-030ebcd8-370ea516] found.
Track [ CRC | V2 ] Status
01 [7de35831|e4fbbbc2] (03+10/17) Accurately ripped
02 [e98d7a1d|a82fc311] (03+10/17) Accurately ripped
03 [dda1e74b|b8d4c5cc] (03+10/17) Accurately ripped
04 [4873d823|c2a82afd] (03+10/17) Accurately ripped
05 [23547fb8|b59b7a43] (03+10/17) Accurately ripped
06 [9057d271|65e62c5d] (03+10/17) Accurately ripped
07 [62b50acc|54b0cd53] (03+10/17) Accurately ripped
08 [f4c5fc25|2cf33e44] (03+09/16) Accurately ripped
09 [a26ad4b9|f2290de0] (03+10/17) Accurately ripped
10 [d9a439a5|e2655e4a] (03+10/17) Accurately ripped
11 [78bba1c2|a4022364] (03+10/17) Accurately ripped
12 [0b75abf7|d933e0c1] (03+10/17) Accurately ripped
13 [9d77806a|caecd559] (03+09/16) Accurately ripped
14 [95419466|8441ee52] (03+09/16) Accurately ripped
15 [11d00e70|1cca3196] (03+10/17) Accurately ripped
16 [8ae1d22b|f801e524] (03+10/17) Accurately ripped
17 [c32f7161|52719fd6] (03+10/17) Accurately ripped
18 [266bce0c|63712480] (02+09/15) Accurately ripped
19 [58f3a35c|0f37cc9e] (03+09/16) Accurately ripped
20 [64a08fa2|b0b092f8] (03+10/17) Accurately ripped
21 [6ceab2de|61064dfb] (03+09/16) Accurately ripped
22 [1afe7704|c8a271d1] (02+10/16) Accurately ripped
Offsetted by 395:
01 [d0338a13] (02/17) Accurately ripped
02 [93980a43] (02/17) Accurately ripped
03 [974baed1] (02/17) Accurately ripped
04 [b6b533c3] (02/17) Accurately ripped
05 [67f6bbda] (02/17) Accurately ripped
06 [ada07ce3] (02/17) Accurately ripped
07 [eaaf97e0] (02/17) Accurately ripped
08 [bf02a7e8] (02/16) Accurately ripped
09 [6f992411] (02/17) Accurately ripped
10 [ad6b4f6e] (02/17) Accurately ripped
11 [1bbe9bc1] (02/17) Accurately ripped
12 [9bed3a74] (02/17) Accurately ripped
13 [b7a9ac6e] (02/16) Accurately ripped
14 [215af14f] (02/16) Accurately ripped
15 [cc51a712] (02/17) Accurately ripped
16 [75175ac6] (02/17) Accurately ripped
17 [9ce9e292] (02/17) Accurately ripped
18 [4ec32ca7] (02/15) Accurately ripped
19 [f05b4bf0] (02/16) Accurately ripped
20 [df721a0b] (02/17) Accurately ripped
21 [ea6c8c96] (02/16) Accurately ripped
22 [91feb577] (02/16) Accurately ripped
Offsetted by 407:
01 [d69730db] (02/17) Accurately ripped
02 [9ca5f89b] (02/17) Accurately ripped
03 [25af76a9] (02/17) Accurately ripped
04 [06888643] (02/17) Accurately ripped
05 [64dd33a2] (02/17) Accurately ripped
06 [43946feb] (02/17) Accurately ripped
07 [d05b2cb0] (02/17) Accurately ripped
08 [25b8abd4] (02/16) Accurately ripped
09 [bfb71071] (02/17) Accurately ripped
10 [9a93b532] (02/17) Accurately ripped
11 [28795a1d] (02/17) Accurately ripped
12 [a050c788] (02/17) Accurately ripped
13 [c6b782fe] (02/16) Accurately ripped
14 [9a450793] (02/16) Accurately ripped
15 [88bfe0da] (02/17) Accurately ripped
16 [f0377112] (02/17) Accurately ripped
17 [99ce7ef6] (02/17) Accurately ripped
18 [72565af3] (02/15) Accurately ripped
19 [a0b3fec0] (02/16) Accurately ripped
20 [d782d64f] (02/17) Accurately ripped
21 [fe707e76] (02/16) Accurately ripped
22 [10faa162] (02/16) Accurately ripped

Track Peak [ CRC32 ] [W/O NULL] [ LOG ]
– 99,9 [EE467F50] [48CEB76C] CRC32
01 99,9 [C4DA9FF7] [B6D91C99]
02 90,3 [FA0566CD] [87A4BE6C]
03 99,9 [62E5EBF0] [B0855FA6]
04 99,9 [6DD8AEEA] [A973946D]
05 99,9 [CCDD79A0] [04DB3839]
06 99,9 [3B7F86CB] [39863C26]
07 99,9 [D00F1CB2] [37043AA2]
08 99,9 [53F5C61D] [29A41F14]
09 99,9 [A2690A03] [CA213FAB]
10 99,9 [8F1DE63E] [86ADED13]
11 99,9 [B4593BE3] [5CC7EAF0]
12 99,9 [7B32A3B9] [4DD7A620]
13 99,9 [DBF46218] [20EFC8B3]
14 99,9 [3AB807BA] [1393201C]
15 99,9 [6165778D] [A3F0BB2F]
16 99,9 [5FE3B018] [4BF5A88D]
17 99,9 [5B86CAF5] [EC98F618]
18 99,9 [79C7C630] [E1FCECDF]
19 99,9 [75183411] [8098F1D5]
20 99,9 [90847165] [21D1EEEF]
21 99,9 [360AD578] [56920041]
22 99,9 [FBFAFDCD] [5B4BE12C]

Thanks to Uncle Remus

See also:
The Nat King Cole Trio - The B...ocal Classics (1947-50) (1996)
Nat "King" Cole - 1940-1941 (1994)