Tags
Language
Tags

Necronomicon - Invictus (2012) [Limited Edition Digipak]

Posted By: Andi_Deris
Necronomicon - Invictus (2012) [Limited Edition Digipak]

Necronomicon - Invictus (2012) [Limited Edition Digipak]
EAC Rip | FLAC: Image+Cue+Log | MP3 CBR 320 kbps | Scans
564 Mb | 164 Mb | 64 Mb | Time: 01:10:39
Massacre Records | MAS DP0753
Thrash Metal

NECRONOMICON are back with their blazing 7th studio album, Invictus ! Long considered a German Thrash Metal institution (they first formed in 1984), Necronomicon have always displayed originality and stood aside from the usual Thrash pack. With Invictus , Necronomicon s individuality and skill in terms of song writing goes from strength to strength, exceeding all expectations with a full sound and terrific production, thanks to an expert mix by Achim Köhler (Primal Fear, Sinner, Brainstorm, Headhunter etc.). Invictus also features guest appearances by Randy Black (ex-Annihilator) and Ben Krahl (Final Kings). Long time fans and newcomers alike will not be disappointed with Invictus . Let there be no doubt in anyone s mind, Necronomicon have never been stronger!

Necronomicon - Invictus (2012) [Limited Edition Digipak]




Track Listing

01. Invictus (06:45)
02. Unleashed (04:05)
03. Bloody Bastards (04:03)
04. Thoughts Running Free (05:49)
05. Unconquered (05:56)
06. Upon Black Wings (04:40)
07. Face To The Wall (05:16)
08. Pandora's Box (04:03)
09. Before The Curtain Falls (04:42)
10. Possessed By Evil 2011 (05:01)

Limited Edition Bonus Tracks
11. Possessed Again (Unplugged) (04:10)
12. Magic Forest (Live In Russia) (04:20)
13. Nightstalker (Live In Russia) (03:11)
14. Hills Of Dead (Live In Russia) (05:02)
15. On Pain Of Death (Live In Russia) (03:36)

Produced by Necronomicon

The Band

• Freddy - Guitars, Vocals
• Andy Gern- Guitar
• Andi Nagel - Bass
• Klaus Enderlin - Drums

Exact Audio Copy V0.99 prebeta 5 from 4. May 2009

EAC extraction logfile from 28. March 2012, 20:29

Necronomicon / Invictus

Used drive : ATAPI iHAS624 B Adapter: 2 ID: 0

Read mode : Secure
Utilize accurate stream : Yes
Defeat audio cache : Yes
Make use of C2 pointers : No

Read offset correction : 6
Overread into Lead-In and Lead-Out : No
Fill up missing offset samples with silence : Yes
Delete leading and trailing silent blocks : No
Null samples used in CRC calculations : Yes
Used interface : Installed external ASPI interface

Used output format : User Defined Encoder
Selected bitrate : 40 kBit/s
Quality : High
Add ID3 tag : No
Command line compressor : C:\Program Files\Exact Audio Copy\Flac\flac.exe
Additional command line options : -6 -V %s


TOC of the extracted CD

Track | Start | Length | Start sector | End sector
––––––––––––––––––––––––––––-
1 | 0:00.00 | 6:44.71 | 0 | 30370
2 | 6:44.71 | 4:04.48 | 30371 | 48718
3 | 10:49.44 | 4:02.43 | 48719 | 66911
4 | 14:52.12 | 5:48.73 | 66912 | 93084
5 | 20:41.10 | 5:56.28 | 93085 | 119812
6 | 26:37.38 | 4:40.12 | 119813 | 140824
7 | 31:17.50 | 5:15.49 | 140825 | 164498
8 | 36:33.24 | 4:03.18 | 164499 | 182741
9 | 40:36.42 | 4:41.43 | 182742 | 203859
10 | 45:18.10 | 5:00.43 | 203860 | 226402
11 | 50:18.53 | 4:09.69 | 226403 | 245146
12 | 54:28.47 | 4:20.16 | 245147 | 264662
13 | 58:48.63 | 3:10.63 | 264663 | 278975
14 | 61:59.51 | 5:02.09 | 278976 | 301634
15 | 67:01.60 | 3:36.07 | 301635 | 317841


Range status and errors

Selected range

Filename D:\Download\Necronomicon - Invictus.wav

Peak level 98.9 %
Range quality 100.0 %
Copy CRC 5D17A04C
Copy OK

No errors occurred


AccurateRip summary

Track 1 not present in database
Track 2 not present in database
Track 3 not present in database
Track 4 not present in database
Track 5 not present in database
Track 6 not present in database
Track 7 not present in database
Track 8 not present in database
Track 9 not present in database
Track 10 not present in database
Track 11 not present in database
Track 12 not present in database
Track 13 not present in database
Track 14 not present in database
Track 15 not present in database

None of the tracks are present in the AccurateRip database

End of status report


Many thanks to the original uploader: Ilijan

SEE also:
Necronomicon 2015 Pathfinder… Between Heaven And Hell
Necronomicon 2018 Unleashed Bastards



Password: pass