Tags
Language
Tags

Necronomicon - Revenge Of The Beast (2008) [Limited Ed.] 2CD

Posted By: Andi_Deris
Necronomicon - Revenge Of The Beast (2008) [Limited Ed.] 2CD

Necronomicon - Revenge Of The Beast (2008) [Limited Ed.] 2CD
EAC Rip | FLAC: Image+Cue+Log | MP3 CBR 320 kbps | Scans
398/404 Mb | 116/118 Mb | 39 Mb | Time: 49:43/51:03
Xtream Music | XM 056 CD/XM 056-2 CD
Thrash Metal

The sixth full-length album by the cult German Thrash Metal band. In 2007 they recorded the long player “Revenge of the Beast” out of their own pocket. Once it was re-produced, mixed and mastered by Guru Achim Köhler it became a damn jackhammer! But they didn't just leave it at one production: Out of thanks and respect to the fans, NECRONOMICON produced “Revenge of the Beast” on their own a second time - in the style of the 80's. It was all done in Temple Studio with Oliver Noack and NECRONOMICON and sounds like it – raw and brutal. Both productions are being released together on a special edition for the 25th anniversary.

Necronomicon - Revenge Of The Beast (2008) [Limited Ed.] 2CD




CD1

01. Magic Forest (03:26)
02. Haunted (03:25)
03. Warfare (03:40)
04. Nightstalker (03:17)
05. On Pain of Death (03:32)
06. Blood Sky (04:23)
07. Who Dies (04:55)
08. Refugee (03:47)
09. Skull & Bone (05:22)
10. Commit Suicide (04:38)
11. War in the Cradle (05:08)
12. One Universe (04:08)

CD2

01. Magic Forest (03:30)
02. On Pain Of Death (03:53)
03. Who Dies? (04:55)
04. Warfare (03:56)
05. Refugee (03:47)
06. Blood Sky (04:40)
07. Skull & Bone (05:22)
08. Haunted (03:40)
09. Commit Suicide (04:37)
10. Nightstalker (03:32)
11. War In The Cradle (05:08)
12. One Universe (04:03)

Produced by Achim Köhler

The Band

• Freddy - Guitars, Vocals
• Andi - Guitar
• Jogi - Bass, Backing Vocals
• Alex - Drums

*****
• André Hilgers - Drums

Exact Audio Copy V0.99 prebeta 5 from 4. May 2009

EAC extraction logfile from 9. January 2010, 7:18

NECRONOMICON / Revenge Of The Beast

Used drive : Optiarc DVD RW AD-7203A Adapter: 4 ID: 2

Read mode : Secure
Utilize accurate stream : Yes
Defeat audio cache : Yes
Make use of C2 pointers : No

Read offset correction : 48
Overread into Lead-In and Lead-Out : No
Fill up missing offset samples with silence : Yes
Delete leading and trailing silent blocks : No
Null samples used in CRC calculations : Yes
Used interface : Native Win32 interface for Win NT & 2000

Used output format : Monkey's Audio Lossless Encoder
Selected bitrate : Normal Lossless Compression
Quality : High
Add ID3 tag : No
Command line compressor : C:\Program Files\Monkey's Audio\MAC.exe


TOC of the extracted CD

Track | Start | Length | Start sector | End sector
––––––––––––––––––––––––––––-
1 | 0:00.00 | 3:25.49 | 0 | 15423
2 | 3:25.49 | 3:25.07 | 15424 | 30805
3 | 6:50.56 | 3:40.20 | 30806 | 47325
4 | 10:31.01 | 3:17.28 | 47326 | 62128
5 | 13:48.29 | 3:32.01 | 62129 | 78029
6 | 17:20.30 | 4:22.73 | 78030 | 97752
7 | 21:43.28 | 4:54.70 | 97753 | 119872
8 | 26:38.23 | 3:46.45 | 119873 | 136867
9 | 30:24.68 | 5:22.21 | 136868 | 161038
10 | 35:47.14 | 4:38.01 | 161039 | 181889
11 | 40:25.15 | 5:08.09 | 181890 | 204998
12 | 45:33.24 | 4:08.18 | 204999 | 223616


Range status and errors

Selected range

Filename L:\DEN@K\MeTaLMaDNeSS\NECRONOMICON - Revenge Of The Beast 2008\NECRONOMICON - Revenge Of The Beast.wav

Peak level 98.9 %
Range quality 100.0 %
Test CRC 7215DB2E
Copy CRC 7215DB2E
Copy OK

No errors occurred


AccurateRip summary

Track 1 accurately ripped (confidence 2) [3095C619]
Track 2 accurately ripped (confidence 2) [F4268B37]
Track 3 accurately ripped (confidence 2) [8110BA69]
Track 4 accurately ripped (confidence 2) [D005B58F]
Track 5 accurately ripped (confidence 2) [F4739820]
Track 6 accurately ripped (confidence 2) [B5D06C2D]
Track 7 accurately ripped (confidence 2) [908C7127]
Track 8 accurately ripped (confidence 2) [886E3869]
Track 9 accurately ripped (confidence 2) [0DD3BD05]
Track 10 accurately ripped (confidence 2) [95E69308]
Track 11 not present in database
Track 12 accurately ripped (confidence 2) [15ECA9D2]

11 track(s) accurately ripped
1 track(s) not present in the AccurateRip database

Some tracks could not be verified as accurate

End of status report

Exact Audio Copy V1.0 beta 3 from 29. August 2011

EAC extraction logfile from 29. June 2014, 18:23

Necronomicon / Revenge Of The Beast CD2

Used drive : Optiarc DVD RW AD-7240S Adapter: 2 ID: 0

Read mode : Secure
Utilize accurate stream : Yes
Defeat audio cache : Yes
Make use of C2 pointers : No

Read offset correction : 48
Overread into Lead-In and Lead-Out : No
Fill up missing offset samples with silence : Yes
Delete leading and trailing silent blocks : No
Null samples used in CRC calculations : Yes
Used interface : Native Win32 interface for Win NT & 2000

Used output format : Internal WAV Routines
Sample format : 44.100 Hz; 16 Bit; Stereo


TOC of the extracted CD

Track | Start | Length | Start sector | End sector
––––––––––––––––––––––––––––-
1 | 0:00.00 | 3:30.22 | 0 | 15771
2 | 3:30.22 | 3:52.54 | 15772 | 33225
3 | 7:23.01 | 4:55.13 | 33226 | 55363
4 | 12:18.14 | 3:56.18 | 55364 | 73081
5 | 16:14.32 | 3:46.38 | 73082 | 90069
6 | 20:00.70 | 4:39.64 | 90070 | 111058
7 | 24:40.59 | 5:22.22 | 111059 | 135230
8 | 30:03.06 | 3:40.06 | 135231 | 151736
9 | 33:43.12 | 4:36.34 | 151737 | 172470
10 | 38:19.46 | 3:31.67 | 172471 | 188362
11 | 41:51.38 | 5:08.24 | 188363 | 211486
12 | 46:59.62 | 4:02.50 | 211487 | 229686


Range status and errors

Selected range

Filename D:\spiralarch\Necronomicon - Revenge Of The Beast CD2.wav

Peak level 98.9 %
Extraction speed 3.8 X
Range quality 100.0 %
Test CRC 2D20021E
Copy CRC 2D20021E
Copy OK

No errors occurred


AccurateRip summary

Track 1 accurately ripped (confidence 2) [3192314B] (AR v2)
Track 2 accurately ripped (confidence 2) [BEC73481] (AR v2)
Track 3 accurately ripped (confidence 2) [4AD50E8A] (AR v2)
Track 4 accurately ripped (confidence 2) [687C4551] (AR v2)
Track 5 accurately ripped (confidence 2) [3E54CA60] (AR v2)
Track 6 accurately ripped (confidence 2) [D3B0A9DE] (AR v2)
Track 7 accurately ripped (confidence 2) [0793CFA0] (AR v2)
Track 8 accurately ripped (confidence 2) [8C0F53F5] (AR v2)
Track 9 accurately ripped (confidence 2) [F211C8E7] (AR v2)
Track 10 accurately ripped (confidence 2) [A0CB941B] (AR v2)
Track 11 accurately ripped (confidence 2) [8400042B] (AR v2)
Track 12 accurately ripped (confidence 2) [65BE450E] (AR v2)

All tracks accurately ripped

End of status report

–– CUETools DB Plugin V2.1.4

[CTDB TOCID: 815jNx9MILBFh.hlac3SE_aQPLw-] found
Submit result: 815jNx9MILBFh.hlac3SE_aQPLw- has been confirmed
Track | CTDB Status
1 | (2/2) Accurately ripped
2 | (2/2) Accurately ripped
3 | (2/2) Accurately ripped
4 | (2/2) Accurately ripped
5 | (2/2) Accurately ripped
6 | (2/2) Accurately ripped
7 | (2/2) Accurately ripped
8 | (2/2) Accurately ripped
9 | (2/2) Accurately ripped
10 | (2/2) Accurately ripped
11 | (2/2) Accurately ripped
12 | (2/2) Accurately ripped


==== Log checksum 024957FB689078A239E8AC4F67F7DDBF808DF80CD244870D73A50456392971C4 ====


Many thanks to the original uploader: denak/spiralarch

SEE also:
Necronomicon 2012 Invictus [Limited Edition Digipak]
Necronomicon 2015 Pathfinder… Between Heaven And Hell
Necronomicon 2018 Unleashed Bastards



Password: pass