Tags
Language
Tags
April 2024
Su Mo Tu We Th Fr Sa
31 1 2 3 4 5 6
7 8 9 10 11 12 13
14 15 16 17 18 19 20
21 22 23 24 25 26 27
28 29 30 1 2 3 4

Neil Sedaka - Italiano (1993)

Posted By: popsakov
Neil Sedaka - Italiano (1993)

Neil Sedaka - Italiano (1993)
EAC Rip | FLAC (Img) + Cue + Log ~ 214 Mb | MP3 CBR320 ~ 166 Mb
Scans Included (JPG, 600 dpi) | RAR 5% Recovery
Pop | Casa Nostra Records #CNR 1025

Singer, songwriter, and pianist Neil Sedaka enjoyed two distinct periods of commercial success in two slightly different styles of pop music: first, as a teen pop star in the late '50s and early '60s, then as a singer of more mature pop/rock in the '70s. In both phases, Sedaka, a classically trained pianist, composed the music for his hits, which he sang in a boyish tenor. And throughout, even when his performing career was at a low ebb, he served as a songwriter for other artists, resulting in a string of hits year in and year out, whether recorded by him or someone else. For himself, he wrote eight U.S. Top Ten pop hits, including the chart-toppers "Breaking Up Is Hard to Do," "Laughter in the Rain," and "Bad Blood." The most successful cover of one of his compositions was Captain & Tennille's recording of "Love Will Keep Us Together," another number one. And over the years his songs were recorded by a wide range of pop, rock, country, R&B, and jazz performers including ABBA, Frankie Avalon, LaVern Baker, Shirley Bassey, Teresa Brewer, Carol Burnett, Glen Campbell, the Carpenters, Nick Carter, David Cassidy, Cher, Petula Clark, Richard Clayderman, Patsy Cline, Rosemary Clooney, Sheryl Crow, Vic Damone, Bobby Darin, John Davidson, Neil Diamond, Gloria Estefan, the 5th Dimension, the Four Seasons, Connie Francis, Crystal Gayle, Lesley Gore, the Happenings, Engelbert Humperdinck, Wanda Jackson, Jan & Dean, Tom Jones, Carole King, Earl Klugh, Peggy Lee, Little Anthony & the Imperials, Tony Martin, Johnny Mathis, Susannah McCorkle, Clyde McPhatter, Mandy Moore, Nana Mouskouri, Maria Muldaur, the Monkees, Jim Nabors, Wayne Newton, Jane Olivor, Donny Osmond, Patti Page, the Partridge Family, Bernadette Peters, Wilson Pickett, Elvis Presley, Cliff Richard, the Searchers, Sha Na Na, Kay Starr, John Travolta, Dinah Washington, Andy Williams, and Glenn Yarbrough, among many others.

This release contains two collections Neil Sedaka - Italiano: Volume 1 and Volume 2, containing a twenty four of Italian-language recordings, originally releases on RCA's Victor's Italiana Label in 1964 and 1965 years.
Neil Sedaka - Italiano (1993)


***************

Neil Sedaka - Italiano (1993)

Neil Sedaka - Italiano (1993)

Track List:

01. I Tuoi Capricci [2:50]
02. Quando Sorridi Cos [2:42]
03. La Terza Luna [2:14]
04. Adresso No [2:16]
05. Finche Vivro [2:46]
06. Il Cielo Ti Ha Creata Per Me [2:22]
07. Tu Non Lo Sai [2:39]
08. Non Cercare Un' Altra Bocca [2:41]
09. Il Re Dei Pagliacci [1:55]
10. L' Ultimo Appuntamento [2:14]
11. A 16 Anni Tu Vuoi Amare [2:23]
12. Se C' E Un Paradiso [2:59]
13. La Notte E Fatta Per Amare [2:11]
14. Sara Sara [2:39]
15. Viene La Notte [2:18]
16. Mai Sara Come Te [2:43]
17. Ricordati Ancora [3:00]
18. Matto [2:45]
19. Non Basta Mai [2:40]
20. I Primo Giorni [2:19]
21. La Luna A Fiori [2:45]
22. Darei 10 Anni [2:11]
23. La Forza Del Destino [2:32]
24. Che Non Farei [3:27]

Exact Audio Copy V1.0 beta 3 from 29. August 2011

EAC extraction logfile from 8. April 2017, 7:28

Neil Sedaka / Italiano

Used drive : TSSTcorpCDDVDW SH-216DB Adapter: 0 ID: 0

Read mode : Secure
Utilize accurate stream : Yes
Defeat audio cache : Yes
Make use of C2 pointers : No

Read offset correction : 6
Overread into Lead-In and Lead-Out : No
Fill up missing offset samples with silence : Yes
Delete leading and trailing silent blocks : No
Null samples used in CRC calculations : Yes
Used interface : Native Win32 interface for Win NT & 2000

Used output format : User Defined Encoder
Selected bitrate : 1024 kBit/s
Quality : High
Add ID3 tag : No
Command line compressor : C:\Program Files (x86)\Exact Audio Copy\Flac\flac.exe
Additional command line options : -V -8 -T "Date=%year%" -T "Genre=%genre%" %source%


TOC of the extracted CD

Track | Start | Length | Start sector | End sector
––––––––––––––––––––––––––––-
1 | 0:00.00 | 2:50.32 | 0 | 12781
2 | 2:50.32 | 2:41.58 | 12782 | 24914
3 | 5:32.15 | 2:14.17 | 24915 | 34981
4 | 7:46.32 | 2:15.55 | 34982 | 45161
5 | 10:02.12 | 2:45.53 | 45162 | 57589
6 | 12:47.65 | 2:21.62 | 57590 | 68226
7 | 15:09.52 | 2:39.30 | 68227 | 80181
8 | 17:49.07 | 2:41.03 | 80182 | 92259
9 | 20:30.10 | 1:54.52 | 92260 | 100861
10 | 22:24.62 | 2:14.20 | 100862 | 110931
11 | 24:39.07 | 2:22.63 | 110932 | 121644
12 | 27:01.70 | 2:59.25 | 121645 | 135094
13 | 30:01.20 | 2:11.10 | 135095 | 144929
14 | 32:12.30 | 2:39.25 | 144930 | 156879
15 | 34:51.55 | 2:17.67 | 156880 | 167221
16 | 37:09.47 | 2:42.73 | 167222 | 179444
17 | 39:52.45 | 2:59.40 | 179445 | 192909
18 | 42:52.10 | 2:45.35 | 192910 | 205319
19 | 45:37.45 | 2:39.55 | 205320 | 217299
20 | 48:17.25 | 2:18.67 | 217300 | 227716
21 | 50:36.17 | 2:45.30 | 227717 | 240121
22 | 53:21.47 | 2:10.55 | 240122 | 249926
23 | 55:32.27 | 2:31.59 | 249927 | 261310
24 | 58:04.11 | 3:27.13 | 261311 | 276848


Range status and errors

Selected range

Filename L:\Private\My Audio Ripps\ CD - RIPS\Neil Sedaka - Italiano\Neil Sedaka - Italiano.wav

Peak level 98.0 %
Extraction speed 3.3 X
Range quality 100.0 %
Test CRC 56FFBB7A
Copy CRC 56FFBB7A
Copy OK

No errors occurred


AccurateRip summary

Track 1 not present in database
Track 2 not present in database
Track 3 not present in database
Track 4 not present in database
Track 5 not present in database
Track 6 not present in database
Track 7 not present in database
Track 8 not present in database
Track 9 not present in database
Track 10 not present in database
Track 11 not present in database
Track 12 not present in database
Track 13 not present in database
Track 14 not present in database
Track 15 not present in database
Track 16 not present in database
Track 17 not present in database
Track 18 not present in database
Track 19 not present in database
Track 20 not present in database
Track 21 not present in database
Track 22 not present in database
Track 23 not present in database
Track 24 not present in database

None of the tracks are present in the AccurateRip database

End of status report

==== Log checksum 4D133B418D6ADD46158E1DF5310A259EC5950D0533254E3BD8C0B0619F399D10 ====

foobar2000 1.3.16 / Dynamic Range Meter 1.1.1
log date: 2018-08-04 16:08:46

––––––––––––––––––––––––––––––––––––––––
Analyzed: Neil Sedaka / Italiano
––––––––––––––––––––––––––––––––––––––––

DR Peak RMS Duration Track
––––––––––––––––––––––––––––––––––––––––
DR10 -0.18 dB -12.78 dB 2:50 01-I Tuoi Capricci
DR9 -0.18 dB -11.10 dB 2:42 02-Quando Sorridi Cos
DR10 -0.18 dB -12.26 dB 2:14 03-La Terza Luna
DR10 -0.18 dB -11.80 dB 2:16 04-Adresso No
DR10 -0.18 dB -12.72 dB 2:46 05-Finche Vivro
DR9 -0.18 dB -11.05 dB 2:22 06-Il Cielo Ti Ha Creata Per Me
DR9 -0.18 dB -11.51 dB 2:39 07-Tu Non Lo Sai
DR10 -0.18 dB -11.62 dB 2:41 08-Non Cercare Un' Altra Bocca
DR10 -0.18 dB -11.84 dB 1:55 09-Il Re Dei Pagliacci
DR11 -0.18 dB -13.28 dB 2:14 10-L' Ultimo Appuntamento
DR10 -0.18 dB -12.49 dB 2:23 11-A 16 Anni Tu Vuoi Amare
DR9 -0.18 dB -10.92 dB 2:59 12-Se C' E Un Paradiso
DR9 -0.18 dB -11.13 dB 2:11 13-La Notte E Fatta Per Amare
DR10 -0.18 dB -11.52 dB 2:39 14-Sara Sara
DR10 -0.18 dB -11.69 dB 2:18 15-Viene La Notte
DR11 -0.18 dB -12.63 dB 2:43 16-Mai Sara Come Te
DR10 -0.18 dB -11.73 dB 3:00 17-Ricordati Ancora
DR10 -0.18 dB -11.99 dB 2:45 18-Matto
DR11 -0.18 dB -12.92 dB 2:40 19-Non Basta Mai
DR11 -0.18 dB -13.05 dB 2:19 20-I Primo Giorni
DR10 -0.18 dB -11.70 dB 2:45 21-La Luna A Fiori
DR10 -0.18 dB -12.25 dB 2:11 22-Darei 10 Anni
DR11 -0.18 dB -13.34 dB 2:32 23-La Forza Del Destino
DR10 -0.18 dB -12.16 dB 3:27 24-Che Non Farei
––––––––––––––––––––––––––––––––––––––––

Number of tracks: 24
Official DR value: DR10

Samplerate: 44100 Hz
Channels: 2
Bits per sample: 16
Bitrate: 425 kbps
Codec: FLAC
================================================================================

Neil Sedaka - Italiano (1993)

All thanks go to alexpika

>>> My Blog <<<

Download from icerbox.com: