Tags
Language
Tags
April 2024
Su Mo Tu We Th Fr Sa
31 1 2 3 4 5 6
7 8 9 10 11 12 13
14 15 16 17 18 19 20
21 22 23 24 25 26 27
28 29 30 1 2 3 4

Neil Sedaka - Ultimate Collection (2001)

Posted By: tirexiss
Neil Sedaka - Ultimate Collection (2001)

Neil Sedaka - Ultimate Collection (2001)
EAC | FLAC (tracks+.cue, log) | Covers Included | 45:25 | 359 MB
Genre: Pop, Easy Listening, Vocal | Label: Forever Gold | Catalog: FG052

Singer, songwriter, and pianist Neil Sedaka enjoyed two distinct periods of commercial success in two slightly different styles of pop music: first, as a teen pop star in the late '50s and early '60s, then as a singer of more mature pop/rock in the '70s. In both phases, Sedaka, a classically trained pianist, composed the music for his hits, which he sang in a boyish tenor. And throughout, even when his performing career was at a low ebb, he served as a songwriter for other artists, resulting in a string of hits year in and year out, whether recorded by him or someone else. For himself, he wrote eight U.S. Top Ten pop hits, including the chart-toppers "Breaking Up Is Hard to Do," "Laughter in the Rain," and "Bad Blood." The most successful cover of one of his compositions was Captain & Tennille's recording of "Love Will Keep Us Together," another number one. And over the years his songs were recorded by a wide range of pop, rock, country, R&B, and jazz performers including ABBA, Frankie Avalon, LaVern Baker, Shirley Bassey, Teresa Brewer, Carol Burnett, Glen Campbell, the Carpenters, Nick Carter, David Cassidy, Cher, Petula Clark, Richard Clayderman, Patsy Cline, Rosemary Clooney, Sheryl Crow, Vic Damone, Bobby Darin, John Davidson, Neil Diamond, Gloria Estefan, the 5th Dimension, the Four Seasons, Connie Francis, Crystal Gayle, Lesley Gore, the Happenings, Engelbert Humperdinck, Wanda Jackson, Jan & Dean, Tom Jones, Carole King, Earl Klugh, Peggy Lee, Little Anthony & the Imperials, Tony Martin, Johnny Mathis, Susannah McCorkle, Clyde McPhatter, Mandy Moore, Nana Mouskouri, Maria Muldaur, the Monkees, Jim Nabors, Wayne Newton, Jane Olivor, Donny Osmond, Patti Page, the Partridge Family, Bernadette Peters, Wilson Pickett, Elvis Presley, Cliff Richard, the Searchers, Sha Na Na, Kay Starr, John Travolta, Dinah Washington, Andy Williams, and Glenn Yarbrough, among many others.

Neil Sedaka - Ultimate Collection (2001)

Track List:

01. Oh Carol
02. Breaking Up Is Hard To Do
03. Laughter In The Rain
04. Solitaire
05. Calendar Girl
06. Love Will Keep Us Together
07. Happy Birthday Sweet Sixteen
08. Climb Up (Stairway To Heaven)
09. Standing On The Inside
10. Bad Blood
11. Lonely Night (Angel Face)
12. New York City Blues
13. Hey Little Devil
14. Sad Eyes
15. The Immigrant

Exact Audio Copy V1.3 from 2. September 2016

Отчёт EAC об извлечении, выполненном 29. марта 2018, 15:57

Neil Sedaka / Neil Sedaka - Ultimate Collection

Дисковод: PLEXTOR DVDR PX-L890SA Adapter: 1 ID: 0

Режим чтения : Достоверность
Использование точного потока : Да
Отключение кэша аудио : Да
Использование указателей C2 : Нет

Коррекция смещения при чтении : 6
Способность читать области Lead-in и Lead-out : Нет
Заполнение пропущенных сэмплов тишиной : Да
Удаление блоков с тишиной в начале и конце : Нет
При вычислениях CRC использовались нулевые сэмплы : Да
Интерфейс : Встроенный Win32-интерфейс для Win NT/2000
Обработка зазоров : Добавлено к предыдущему треку

Выходной формат : Пользовательский кодировщик
Выбранный битрейт : 896 kBit/s
Качество : Высокий
Добавление ID3-тега : Нет
Утилита сжатия : C:\Program Files\Exact Audio Copy\Flac\flac.exe
Дополнительные параметры : -V -8 -T "Genre=%genre%" -T "Artist=%artist%" -T "Title=%title%" -T "Album=%albumtitle%" -T "Date=%year%" -T "Tracknumber=%tracknr%" -T "Comment=%comment%" %source%


TOC извлечённого CD

Трек | Старт | Длительность | Начальный сектор | Конечный сектор
––––––––––––––––––––––––––––––––––-
1 | 0:00.00 | 1:24.22 | 0 | 6321
2 | 1:24.22 | 4:07.58 | 6322 | 24904
3 | 5:32.05 | 3:22.25 | 24905 | 40079
4 | 8:54.30 | 4:55.74 | 40080 | 62278
5 | 13:50.29 | 1:50.09 | 62279 | 70537
6 | 15:40.38 | 3:24.37 | 70538 | 85874
7 | 19:05.00 | 1:39.58 | 85875 | 93357
8 | 20:44.58 | 1:11.57 | 93358 | 98739
9 | 21:56.40 | 4:05.66 | 98740 | 117180
10 | 26:02.31 | 2:58.74 | 117181 | 130604
11 | 29:01.30 | 2:57.21 | 130605 | 143900
12 | 31:58.51 | 4:29.40 | 143901 | 164115
13 | 36:28.16 | 0:50.66 | 164116 | 167931
14 | 37:19.07 | 3:56.69 | 167932 | 185700
15 | 41:16.01 | 4:09.28 | 185701 | 204403


Трек 1

Имя файла H:\Lossles\Neil Sedaka - Neil Sedaka - Ultimate Collection 2001\01 Oh Carol.wav

Длина предзазора 0:00:02.00

Пиковый уровень 99.8 %
Скорость извлечения 2.8 X
Качество трека 99.8 %
CRC теста CAE5A741
CRC копии CAE5A741
Точное извлечение (достоверность 1) [E9FA1D8B] (AR v1)
Копирование… OK

Трек 2

Имя файла H:\Lossles\Neil Sedaka - Neil Sedaka - Ultimate Collection 2001\02 Breaking Up Is Hard To Do.wav

Длина предзазора 0:00:02.00

Пиковый уровень 99.8 %
Скорость извлечения 4.9 X
Качество трека 100.0 %
CRC теста 9D158278
CRC копии 9D158278
Точное извлечение (достоверность 1) [86F088CA] (AR v1)
Копирование… OK

Трек 3

Имя файла H:\Lossles\Neil Sedaka - Neil Sedaka - Ultimate Collection 2001\03 Laughter In The Rain.wav

Длина предзазора 0:00:02.00

Пиковый уровень 99.8 %
Скорость извлечения 5.0 X
Качество трека 100.0 %
CRC теста D7816C7A
CRC копии D7816C7A
Точное извлечение (достоверность 1) [98578EA3] (AR v1)
Копирование… OK

Трек 4

Имя файла H:\Lossles\Neil Sedaka - Neil Sedaka - Ultimate Collection 2001\04 Solitaire.wav

Длина предзазора 0:00:02.00

Пиковый уровень 99.8 %
Скорость извлечения 5.3 X
Качество трека 100.0 %
CRC теста D6C58E79
CRC копии D6C58E79
Точное извлечение (достоверность 1) [7864919D] (AR v1)
Копирование… OK

Трек 5

Имя файла H:\Lossles\Neil Sedaka - Neil Sedaka - Ultimate Collection 2001\05 Calendar Girl.wav

Длина предзазора 0:00:02.00

Пиковый уровень 99.8 %
Скорость извлечения 4.3 X
Качество трека 100.0 %
CRC теста C3940F25
CRC копии C3940F25
Точное извлечение (достоверность 1) [4BC34E23] (AR v1)
Копирование… OK

Трек 6

Имя файла H:\Lossles\Neil Sedaka - Neil Sedaka - Ultimate Collection 2001\06 Love Will Keep Us Together.wav

Длина предзазора 0:00:02.00

Пиковый уровень 99.8 %
Скорость извлечения 4.2 X
Качество трека 99.9 %
CRC теста 6DD79524
CRC копии 6DD79524
Точное извлечение (достоверность 1) [AEB986D1] (AR v1)
Копирование… OK

Трек 7

Имя файла H:\Lossles\Neil Sedaka - Neil Sedaka - Ultimate Collection 2001\07 Happy Birthday Sweet Sixteen.wav

Длина предзазора 0:00:02.00

Пиковый уровень 99.8 %
Скорость извлечения 4.4 X
Качество трека 100.0 %
CRC теста 3A08B3B4
CRC копии 3A08B3B4
Точное извлечение (достоверность 1) [FBF82A79] (AR v1)
Копирование… OK

Трек 8

Имя файла H:\Lossles\Neil Sedaka - Neil Sedaka - Ultimate Collection 2001\08 Climb Up (Stairway To Heaven).wav

Длина предзазора 0:00:02.00

Пиковый уровень 99.8 %
Скорость извлечения 3.9 X
Качество трека 100.0 %
CRC теста 816218E3
CRC копии 816218E3
Точное извлечение (достоверность 1) [01C33781] (AR v1)
Копирование… OK

Трек 9

Имя файла H:\Lossles\Neil Sedaka - Neil Sedaka - Ultimate Collection 2001\09 Standing On The Inside.wav

Длина предзазора 0:00:02.00

Пиковый уровень 99.8 %
Скорость извлечения 5.2 X
Качество трека 100.0 %
CRC теста F5B25C7E
CRC копии F5B25C7E
Точное извлечение (достоверность 1) [9E29E8CB] (AR v1)
Копирование… OK

Трек 10

Имя файла H:\Lossles\Neil Sedaka - Neil Sedaka - Ultimate Collection 2001\10 Bad Blood.wav

Длина предзазора 0:00:02.00

Пиковый уровень 99.8 %
Скорость извлечения 4.9 X
Качество трека 100.0 %
CRC теста E4530105
CRC копии E4530105
Точное извлечение (достоверность 1) [051C0BF0] (AR v1)
Копирование… OK

Трек 11

Имя файла H:\Lossles\Neil Sedaka - Neil Sedaka - Ultimate Collection 2001\11 Lonely Night (Angel Face).wav

Длина предзазора 0:00:02.00

Пиковый уровень 99.8 %
Скорость извлечения 4.2 X
Качество трека 99.9 %
CRC теста 9158CAE1
CRC копии 9158CAE1
Точное извлечение (достоверность 1) [A7A8DEE8] (AR v1)
Копирование… OK

Трек 12

Имя файла H:\Lossles\Neil Sedaka - Neil Sedaka - Ultimate Collection 2001\12 New York City Blues.wav

Длина предзазора 0:00:02.00

Пиковый уровень 99.8 %
Скорость извлечения 5.3 X
Качество трека 100.0 %
CRC теста 795439FF
CRC копии 795439FF
Точное извлечение (достоверность 1) [C4C99C98] (AR v1)
Копирование… OK

Трек 13

Имя файла H:\Lossles\Neil Sedaka - Neil Sedaka - Ultimate Collection 2001\13 Hey Little Devil.wav

Длина предзазора 0:00:02.00

Пиковый уровень 99.8 %
Скорость извлечения 3.4 X
Качество трека 100.0 %
CRC теста 5CE538B4
CRC копии 5CE538B4
Точное извлечение (достоверность 1) [0065BCA8] (AR v1)
Копирование… OK

Трек 14

Имя файла H:\Lossles\Neil Sedaka - Neil Sedaka - Ultimate Collection 2001\14 Sad Eyes.wav

Длина предзазора 0:00:02.00

Пиковый уровень 99.8 %
Скорость извлечения 5.2 X
Качество трека 100.0 %
CRC теста B2D4DC77
CRC копии B2D4DC77
Точное извлечение (достоверность 1) [8F7860F7] (AR v1)
Копирование… OK

Трек 15

Имя файла H:\Lossles\Neil Sedaka - Neil Sedaka - Ultimate Collection 2001\15 The Immigrant.wav

Длина предзазора 0:00:02.00

Пиковый уровень 99.8 %
Скорость извлечения 4.8 X
Качество трека 100.0 %
CRC теста FA0CED6E
CRC копии FA0CED6E
Точное извлечение (достоверность 1) [A0668CFA] (AR v1)
Копирование… OK


Все треки извлечены точно

Ошибок не произошло

Конец отчёта

–– CUETools DB Plugin V2.1.6

[CTDB TOCID: wS3h1I7YWjBvitZZMRc.Smin.n8-] found
Submit result:
Track | CTDB Status
1 | (5/5) Accurately ripped
2 | (5/5) Accurately ripped
3 | (5/5) Accurately ripped
4 | (5/5) Accurately ripped
5 | (5/5) Accurately ripped
6 | (5/5) Accurately ripped
7 | (5/5) Accurately ripped
8 | (5/5) Accurately ripped
9 | (5/5) Accurately ripped
10 | (5/5) Accurately ripped
11 | (5/5) Accurately ripped
12 | (5/5) Accurately ripped
13 | (5/5) Accurately ripped
14 | (5/5) Accurately ripped
15 | (5/5) Accurately ripped


==== Контрольная сумма отчёта C7030498FEF0E161A6572410ECB4F4B330783A9D7E393EEF402EB1EDB0BF88F4 ====

Thanks to the Original ripper (Hermes1967)!

Download: