Tags
Language
Tags
July 2024
Su Mo Tu We Th Fr Sa
30 1 2 3 4 5 6
7 8 9 10 11 12 13
14 15 16 17 18 19 20
21 22 23 24 25 26 27
28 29 30 31 1 2 3

Nelson Freire - Ludwig van Beethoven: Piano Sonatas (2006)

Posted By: ArlegZ
Nelson Freire - Ludwig van Beethoven: Piano Sonatas (2006)

Nelson Freire - Ludwig van Beethoven: Piano Sonatas (2006)
EAC | FLAC | Image (Cue & Log) ~ 208 Mb | Total time: 69:25 | Scans included
Classical | Label: Decca | # 475 8155 | Recorded: 2006

There's some dazzling pianism on display here, but also a rare sensibility that enables Nelson Freire to plumb the depths of Beethoven's slow movements without ever sentimentalising them.
— BBC Music Magazine

Performer:
Nelson Freire, piano

Tracklist:
Ludwig van Beethoven (1770-1827)
Piano Sonata No. 21 in C major, Op. 53 'Waldstein'
01. I. Allegro con brio
02. II. Introduzione. Adagio molto
03. III. Rondo. Allegretto moderato - Prestissimo
Piano Sonata No. 26 in E flat major, Op. 81a 'Les Adieux'
04. I. Das Lebewohl. Adagio - Allegro
05. II. Abwesendheit. Andante espressivo
06. III. Das Wiedersehn. Vivacissimamente
Piano Sonata No. 31 in A flat major, Op. 110
07. I. Moderato cantabile molto espressivo
08. II. Allegro molto
09. IIIa. Adagio ma non troppo
10. IIIb. Fuga. Allegro ma non troppo
Piano Sonata No. 14 in C sharp minor, Op. 27 No. 2 ‘Moonlight'
11. I. Adagio sostenuto
12. II. Allegretto
13. III. Presto


Exact Audio Copy V1.6 from 23. October 2020

EAC extraction logfile from 17. January 2024, 7:14

Nelson Freire / Beethoven - Piano Sonatas

Used drive : Dell DVD+/-RW DW316 Adapter: 1 ID: 0

Read mode : Secure
Utilize accurate stream : Yes
Defeat audio cache : Yes
Make use of C2 pointers : No

Read offset correction : 6
Overread into Lead-In and Lead-Out : No
Fill up missing offset samples with silence : Yes
Delete leading and trailing silent blocks : No
Null samples used in CRC calculations : Yes
Used interface : Native Win32 interface for Win NT & 2000

Used output format : User Defined Encoder
Selected bitrate : 768 kBit/s
Quality : High
Add ID3 tag : No
Command line compressor : C:\Program Files (x86)\Exact Audio Copy\FLAC\FLAC.EXE
Additional command line options : -6 -V -T "ARTIST=%artist%" -T "TITLE=%title%" -T "ALBUM=%albumtitle%" -T "DATE=%year%" -T "TRACKNUMBER=%tracknr%" -T "GENRE=%genre%" -T "COMMENT=%comment%" -T "BAND=%albuminterpret%" -T "ALBUMARTIST=%albuminterpret%" -T "COMPOSER=%composer%" %haslyrics%–tag-from-file=LYRICS="%lyricsfile%"%haslyrics% -T "DISCNUMBER=%cdnumber%" -T "TOTALDISCS=%totalcds%" -T "TOTALTRACKS=%numtracks%" %hascover%–picture="%coverfile%"%hascover% %source% -o %dest%


TOC of the extracted CD

Track | Start | Length | Start sector | End sector
––––––––––––––––––––––––––––-
1 | 0:00.00 | 9:31.19 | 0 | 42843
2 | 9:31.19 | 3:47.08 | 42844 | 59876
3 | 13:18.27 | 9:17.16 | 59877 | 101667
4 | 22:35.43 | 6:26.11 | 101668 | 130628
5 | 29:01.54 | 3:21.55 | 130629 | 145758
6 | 32:23.34 | 5:17.03 | 145759 | 169536
7 | 37:40.37 | 6:15.04 | 169537 | 197665
8 | 43:55.41 | 2:00.12 | 197666 | 206677
9 | 45:55.53 | 3:18.65 | 206678 | 221592
10 | 49:14.43 | 7:03.52 | 221593 | 253369
11 | 56:18.20 | 5:26.01 | 253370 | 277820
12 | 61:44.21 | 2:12.61 | 277821 | 287781
13 | 63:57.07 | 5:25.60 | 287782 | 312216


Range status and errors

Selected range

Filename C:\Users\sbard\Music\My rips\Beethoven (Decca, 2006) Piano Sonatas (Freire) §\Nelson Freire - Beethoven - Piano Sonatas.wav

Peak level 97.4 %
Extraction speed 4.6 X
Range quality 100.0 %
Copy CRC F1014997
Copy OK

No errors occurred


AccurateRip summary

Track 1 accurately ripped (confidence 23) [9973C4A5] (AR v2)
Track 2 accurately ripped (confidence 23) [75223C45] (AR v2)
Track 3 accurately ripped (confidence 23) [6CDBFB66] (AR v2)
Track 4 accurately ripped (confidence 23) [71B2ECEF] (AR v2)
Track 5 accurately ripped (confidence 23) [DBA15EA6] (AR v2)
Track 6 accurately ripped (confidence 23) [9A8C20B7] (AR v2)
Track 7 accurately ripped (confidence 23) [04C2C412] (AR v2)
Track 8 accurately ripped (confidence 23) [D4CE79C8] (AR v2)
Track 9 accurately ripped (confidence 22) [1053C091] (AR v2)
Track 10 accurately ripped (confidence 23) [C1F1F9B2] (AR v2)
Track 11 accurately ripped (confidence 23) [AAE06509] (AR v2)
Track 12 accurately ripped (confidence 23) [C08F221C] (AR v2)
Track 13 accurately ripped (confidence 22) [62938565] (AR v2)

All tracks accurately ripped

End of status report

–– CUETools DB Plugin V2.1.6

[CTDB TOCID: MeX2OTvHaNLu6sJWrfeLA1tEesI-] found
Submit result: MeX2OTvHaNLu6sJWrfeLA1tEesI- has been confirmed
Track | CTDB Status
1 | (49/49) Accurately ripped
2 | (49/49) Accurately ripped
3 | (49/49) Accurately ripped
4 | (49/49) Accurately ripped
5 | (49/49) Accurately ripped
6 | (49/49) Accurately ripped
7 | (49/49) Accurately ripped
8 | (49/49) Accurately ripped
9 | (49/49) Accurately ripped
10 | (49/49) Accurately ripped
11 | (49/49) Accurately ripped
12 | (49/49) Accurately ripped
13 | (48/49) Accurately ripped


==== Log checksum 698D506FCA6A5BA562DD091058B67B0BC3164B519BC934EAD90F15122BBE9739 ====

Nelson Freire - Ludwig van Beethoven: Piano Sonatas (2006)

Thanks to the original releaser