Tags
Language
Tags

Andris Nelsons, Wiener Philharmoniker - Neujahrskonzert 2020 [Blu-Ray]

Posted By: Vilboa
Andris Nelsons, Wiener Philharmoniker - Neujahrskonzert 2020 [Blu-Ray]

Andris Nelsons, Wiener Philharmoniker - Neujahrskonzert 2020 [Blu-Ray]
BluRay | BDMV | MPEG-4 AVC Video / 24972 kbps / 1080i / 29,970 fps | 119 min + 39 min (bonus) | 36,8 Gb
Audio1: LPCM Audio / 2.0 / 24-bit | Audio2: DTS-HD Master Audio / 5.1 / 48 kHz / 4022 kbps / 24-bit
––––––
BluRay-rip | AVC | MKV 1920x1080 / 6215 kbps / 29,97 fps | 119 min + 25 min (bonus) | 7,83 Gb
Audio: DTS / 6ch / 48.0 KHz / 24 bits
Classical | Sony Classical

Das berühmte Neujahrskonzert der Wiener Philharmoniker ist auch 2020 der prachtvolle und exzellente Auftakt zum neuen Klassik-Jahr.Im festlichen und für seinen Klang berühmten Goldenen Saal des Wiener Musikvereins präsentieren die Wiener Philharmoniker ein beschwingtes Programm.Erstmals leitet der lettische Dirigent Andris Nelsons, einer der besten Dirigenten der Welt und bekannt auch als Chef des Gewandhauses Leipzig, die Wiener Philharmoniker, mit denen er seit vielen Jahren eng verbunden ist.Das unterhaltsame Programm enthält bekannte und entdeckenswerte Walzer und Polkas von Johann Strauss Vater und Sohn, Carl Michael Ziehrer, Franz von Suppé, Hans Christian Lumbye und anderen Komponisten.Und das allererste Mal ist bei einem Neujahrskonzert auch Musik von Ludwig van Beethoven zu hören, dessen 250.Geburtstag die Klassik-Welt 2020 feiert.

Cast:
Wiener Philharmoniker
Andris Nelsons, conductor

Track List
01. Opening Credits
Carl Michael Ziehrer
02. Ouvertüre zu "Die Landstreicher (The Vagabonds)"
Josef Strauss
03. Liebesgrüße (Greetings of Love) Walzer op. 56
04. Liechtenstein-Marsch op. 36
Johann Strauss II
05. Blumenfest (Flower Festival) Polka. op. 111
06. Wo die Zitronen blüh'n (Where the Lemons Blossom), Walzer op. 364
Eduard Strauss
07. Knall und Fall (Without Delay), Polka schnell op. 132
Franz von Suppé
08. Ouvertüre zu "Leichte Cavallerie"
Josef Strauss
09. Cupido, Polka française op. 81
Johann Strauss II
10. Seid umschlungen, Millionen (Be Embraced, You Millions), Walzer op. 443
Eduard Strauss
11. Eisblume (Ice Flower), Polka mazurk op. 55 (Arr. Wolfgang Dörner)
Josef Hellmesberger II
12. Gavotte
Hans Christian Lumbye
13. Postillon Galop, op. 16/2 (Arr. Wolfgang Dörner)
Ludwig van Beethoven
14. 12 Contretänze WoO 14 (Nr. 1, 2, 3, 7, 10 & 8)
Johann Strauss II
15. Freuet euch des Lebens (Enjoy Life), Walzer op.340
16. Tritsch-Tratsch, Polka schnell op. 214
Josef Strauss
17. Dynamiden, Walzer op. 173
18. Im Fluge, Polka schnell op. 230
Johann Strauss II
19. An der schönen blauen Donau, Walzer op. 314
Johann Strauss
20. Radetzky-Marsch op. 228
21. End Credits
Bonus Features:
BEETHOVENS BLÄTTERWIRBEL: The Lost Music
2 complete ballette sequences
- Seid umschlungen, Millionen!
- Contertanze


Disc Title: NEW YEARS CONCERT 2020
Disc Size: 39 528 294 806 bytes
Protection: AACS
Playlist: 00003.MPLS
Size: 29 586 493 440 bytes
Length: 1:59:22.321
Total Bitrate: 33.05 Mbps
Video: MPEG-4 AVC Video / 24972 kbps / 1080i / 29.970 fps / 16:9 / High Profile 4.1
Audio: Undetermined / LPCM Audio / 2.0 / 48 kHz / 2304 kbps / 24-bit
Audio: Undetermined / DTS-HD Master Audio / 5.1 / 48 kHz / 4022 kbps / 24-bit (DTS Core: 5.1 / 48 kHz / 1509 kbps / 24-bit)


General
Unique ID : 244342349247904264388076309292128461879 (0xB7D29FECFC074539A9DA2C1682F0E437)
Complete name : C:\New Years Concert 2020.mkv
Format : Matroska
Format version : Version 2
File size : 6.48 GiB
Duration : 1h 59mn
Overall bit rate : 7 769 Kbps
Movie name : New Years Concert 2020
Encoded date : UTC 2020-02-02 10:50:00
Writing application : DVDFab 9.1.6.8
Writing library : libebml v0.7.8 + libmatroska v0.8.1

Video
ID : 1
Format : AVC
Format/Info : Advanced Video Codec
Format profile : High@L4.1
Format settings, CABAC : Yes
Format settings, ReFrames : 2 frames
Codec ID : V_MPEG4/ISO/AVC
Duration : 1h 59mn
Bit rate : 6 215 Kbps
Width : 1 920 pixels
Height : 1 080 pixels
Display aspect ratio : 16:9
Frame rate mode : Constant
Frame rate : 29.970 fps
Color space : YUV
Chroma subsampling : 4:2:0
Bit depth : 8 bits
Scan type : Progressive
Bits/(Pixel*Frame) : 0.100
Stream size : 5.09 GiB (79%)
Writing library : x264 core 142
Encoding settings : cabac=1 / ref=1 / deblock=1:-1:-1 / analyse=0x3:0 / me=hex / subme=5 / psy=0 / mixed_ref=0 / me_range=16 / chroma_me=1 / trellis=0 / 8x8dct=1 / cqm=0 / deadzone=21,11 / fast_pskip=1 / chroma_qp_offset=0 / threads=8 / lookahead_threads=2 / sliced_threads=0 / nr=0 / decimate=1 / interlaced=0 / bluray_compat=0 / constrained_intra=0 / bframes=2 / b_pyramid=0 / b_adapt=1 / b_bias=0 / direct=1 / weightb=1 / open_gop=0 / weightp=0 / keyint=24 / keyint_min=13 / scenecut=40 / intra_refresh=0 / rc=abr / mbtree=0 / bitrate=6215 / ratetol=1.0 / qcomp=0.60 / qpmin=0 / qpmax=69 / qpstep=4 / ip_ratio=1.40 / pb_ratio=1.30 / aq=1:1.00
Default : Yes
Forced : No
Color primaries : BT.709
Transfer characteristics : BT.709
Matrix coefficients : BT.709
Color range : Limited

Audio
ID : 2
Format : DTS
Format/Info : Digital Theater Systems
Mode : 16
Format settings, Endianness : Big
Codec ID : A_DTS
Duration : 1h 59mn
Bit rate mode : Constant
Bit rate : 1 509 Kbps
Channel(s) : 6 channels
Channel positions : Front: L C R, Side: L R, LFE
Sampling rate : 48.0 KHz
Bit depth : 24 bits
Compression mode : Lossy
Stream size : 1.26 GiB (19%)
Default : Yes
Forced : No

Menu
00:00:00.000 : en:Chapter 01
00:01:15.108 : en:Chapter 02
00:06:33.025 : en:Chapter 03
00:14:56.061 : en:Chapter 04
00:18:22.901 : en:Chapter 05
00:21:25.450 : en:Chapter 06
00:31:16.841 : en:Chapter 07
00:34:24.162 : en:Chapter 08
00:41:57.681 : en:Chapter 09
00:45:41.472 : en:Chapter 10
00:56:13.036 : en:Chapter 11
01:01:15.672 : en:Chapter 12
01:06:52.341 : en:Chapter 13
01:10:00.329 : en:Chapter 14
01:15:27.723 : en:Chapter 15
01:23:36.444 : en:Chapter 16
01:26:25.513 : en:Chapter 17
01:38:21.662 : en:Chapter 18
01:40:43.037 : en:Chapter 19
01:41:44.665 : en:Chapter 20
01:53:13.586 : en:Chapter 21
01:57:19.565 : en:Chapter 22
01:59:21.120 : en:Chapter 23
––––––
General
Unique ID : 171135269644135838740157249365962197030 (0x80BF743BA09FD8769ED68A207B250826)
Complete name : C:\New Years Concert 2020_bonus.mkv
Format : Matroska
Format version : Version 2
File size : 1.36 GiB
Duration : 25mn 5s
Overall bit rate : 7 770 Kbps
Movie name : New Years Concert 2020_bonus
Encoded date : UTC 2020-02-02 12:08:35
Writing application : DVDFab 9.1.6.8
Writing library : libebml v0.7.8 + libmatroska v0.8.1

Video
ID : 1
Format : AVC
Format/Info : Advanced Video Codec
Format profile : High@L4.1
Format settings, CABAC : Yes
Format settings, ReFrames : 2 frames
Codec ID : V_MPEG4/ISO/AVC
Duration : 25mn 5s
Bit rate : 6 215 Kbps
Width : 1 920 pixels
Height : 1 080 pixels
Display aspect ratio : 16:9
Frame rate mode : Constant
Frame rate : 29.970 fps
Color space : YUV
Chroma subsampling : 4:2:0
Bit depth : 8 bits
Scan type : Progressive
Bits/(Pixel*Frame) : 0.100
Stream size : 1.07 GiB (79%)
Writing library : x264 core 142
Encoding settings : cabac=1 / ref=1 / deblock=1:-1:-1 / analyse=0x3:0 / me=hex / subme=5 / psy=0 / mixed_ref=0 / me_range=16 / chroma_me=1 / trellis=0 / 8x8dct=1 / cqm=0 / deadzone=21,11 / fast_pskip=1 / chroma_qp_offset=0 / threads=8 / lookahead_threads=2 / sliced_threads=0 / nr=0 / decimate=1 / interlaced=0 / bluray_compat=0 / constrained_intra=0 / bframes=2 / b_pyramid=0 / b_adapt=1 / b_bias=0 / direct=1 / weightb=1 / open_gop=0 / weightp=0 / keyint=24 / keyint_min=13 / scenecut=40 / intra_refresh=0 / rc=abr / mbtree=0 / bitrate=6215 / ratetol=1.0 / qcomp=0.60 / qpmin=0 / qpmax=69 / qpstep=4 / ip_ratio=1.40 / pb_ratio=1.30 / aq=1:1.00
Default : Yes
Forced : No
Color primaries : BT.709
Transfer characteristics : BT.709
Matrix coefficients : BT.709
Color range : Limited

Audio
ID : 2
Format : DTS
Format/Info : Digital Theater Systems
Mode : 16
Format settings, Endianness : Big
Codec ID : A_DTS
Duration : 25mn 5s
Bit rate mode : Constant
Bit rate : 1 509 Kbps
Channel(s) : 6 channels
Channel positions : Front: L C R, Side: L R, LFE
Sampling rate : 48.0 KHz
Bit depth : 24 bits
Compression mode : Lossy
Stream size : 271 MiB (19%)
Default : Yes
Forced : No

Menu
00:00:00.000 : en:Chapter 01
00:25:04.903 : en:Chapter 02

All screenshots taken from BDRip

Andris Nelsons, Wiener Philharmoniker - Neujahrskonzert 2020 [Blu-Ray]