Subcategories

Neuroactive - Fiber-Optic Rhythm (1999)

Posted By: Andi_Deris
Neuroactive - Fiber-Optic Rhythm (1999)

Neuroactive - Fiber-Optic Rhythm (1999)
EAC Rip | FLAC: Image+Cue+Log | 392 Mb | MP3 CBR 320 kbps | 135 Mb | Scans | 100 Mb | 53:49
Cyberware Productions/Out Of Line | NET 024/OUT 034
Electronic, Electro, Synth-Pop

Neuroactive effectively blends several electronic music styles into a sound that appeals to many different tastes, from synthpop to industrial to electronica. The sharp, punchy electronic soundscapes combine with the deep, melodic vocals for a sound that will take this band to the top. The voice of Karjalainen suits the hyper-electronic soundscapes of the 1999 Neuroactive better; synthpop with a techno/ambient feeling.

Neuroactive - Fiber-Optic Rhythm (1999)




Track Listing

01. Fiber Drum (03:13)
02. Moments Passing By (Extended RMX) (05:09)
03. Shrieks And Sighs (04:57)
04. Parallel (05:16)
05. Inside Your World (03:55)
06. Visualise (feat. Geoff Pinckney) (05:06)
07. Put Your Trust In Me (04:07)
08. Defeated (04:10)
09. Fiber-Optic Rhythm (feat. Midihead) (03:32)
10. Half-Life (04:38)
11. Contempt (05:10)
12. Timemachine (04:35)

Produced by Neuroactive

Notes

Made in EU.
"Half-Life" is a bonus track.
Disc is imprinted "european version".


Exact Audio Copy V1.0 beta 3 from 29. August 2011

Отчёт EAC об извлечении, выполненном 6. мая 2017, 18:34

Neuroactive / Fiber-Optic Rhythm

Дисковод: HL-DT-STDVDRAM GH24NSB0 Adapter: 0 ID: 0

Режим чтения : Достоверность
Использование точного потока : Да
Отключение кэша аудио : Да
Использование указателей C2 : Нет

Коррекция смещения при чтении : 6
Способность читать области Lead-in и Lead-out : Нет
Заполнение пропущенных сэмплов тишиной : Да
Удаление блоков с тишиной в начале и конце : Нет
При вычислениях CRC использовались нулевые сэмплы : Да
Интерфейс : Встроенный Win32-интерфейс для Win NT/2000

Выходной формат : Пользовательский кодировщик
Выбранный битрейт : 128 kBit/s
Качество : Высокий
Добавление ID3-тега : Нет
Утилита сжатия : C:\Program Files (x86)\Exact Audio Copy\Flac\flac.exe
Дополнительные параметры : -V -8 -T "Date=%year%" -T "Genre=%genre%" %source%


TOC извлечённого CD

Трек | Старт | Длительность | Начальный сектор | Конечный сектор
––––––––––––––––––––––––––––––––––-
1 | 0:00.00 | 3:12.55 | 0 | 14454
2 | 3:12.55 | 5:09.20 | 14455 | 37649
3 | 8:22.00 | 4:56.51 | 37650 | 59900
4 | 13:18.51 | 5:16.11 | 59901 | 83611
5 | 18:34.62 | 3:55.05 | 83612 | 101241
6 | 22:29.67 | 5:06.08 | 101242 | 124199
7 | 27:36.00 | 4:06.73 | 124200 | 142722
8 | 31:42.73 | 4:10.00 | 142723 | 161472
9 | 35:52.73 | 3:31.56 | 161473 | 177353
10 | 39:24.54 | 4:38.16 | 177354 | 198219
11 | 44:02.70 | 5:10.18 | 198220 | 221487
12 | 49:13.13 | 4:34.74 | 221488 | 242111


Характеристики диапазона извлечения и сообщения об ошибках

Выбранный диапазон

Имя файла C:\Users\blackriver\Desktop\тнеро\Neuroactive - Fiber-Optic Rhythm.wav

Пиковый уровень 89.1 %
Скорость извлечения 1.7 X
Качество диапазона 100.0 %
CRC теста 8DA7E9E0
CRC копии 8DA7E9E0
Копирование… OK

Ошибок не произошло


AccurateRip: сводка

Трек 1 : извлечено точно (доверие 4) [560D36FA] (AR v2)
Трек 2 : извлечено точно (доверие 4) [8B28C613] (AR v2)
Трек 3 : извлечено точно (доверие 4) [76AA6B21] (AR v2)
Трек 4 : извлечено точно (доверие 4) [B815CF38] (AR v2)
Трек 5 : извлечено точно (доверие 4) [49D0D6E5] (AR v2)
Трек 6 : извлечено точно (доверие 4) [4CABB719] (AR v2)
Трек 7 : извлечено точно (доверие 4) [089EC04F] (AR v2)
Трек 8 : извлечено точно (доверие 4) [0A5CF193] (AR v2)
Трек 9 : извлечено точно (доверие 4) [9460BA56] (AR v2)
Трек 10 : извлечено точно (доверие 4) [E0609DEA] (AR v2)
Трек 11 : извлечено точно (доверие 4) [7F10394A] (AR v2)
Трек 12 : извлечено точно (доверие 4) [50283BEB] (AR v2)

Все треки извлечены точно

Конец отчёта

==== Контрольная сумма отчёта 99AD4C10DCD2D4AD010528C47B439FC33D4D03089606975C61E2A939C865FCF2 ====


Many thanks to the original uploader: recoil-PREDATOR

SEE also:
Neuroactive 1994 Morphology
Neuroactive 1997 Phonic Trace



Password: pass