Tags
Language
Tags

New Order - Restless [CDS] (2015)

Posted By: gribovar
New Order - Restless [CDS] (2015)

New Order - Restless [CDS] (2015)
EAC Rip | FLAC (tracks+.cue+log) - 273 MB | MP3 CBR 320 kbps (LAME 3.93) - 96 MB | Covers - 25 MB
Genre: Synth-pop, New Wave, House | RAR 3% Rec. | Label: Mute (CDMUTE541)

Restless is a six-track release that includes single and extended versions, along with four other mixes. The Agoria remix and the Extended 12” mix feature alongside further remixes from xxxy, RAC and long-term collaborator Andrew Weatherall.
Tracklist:
01. Restless (Single Version)
02. Restless (Extended 12" Mix)
03. Restless (Agoria Remix)
04. Restless (xxxy Build Up Mix)
05. Restless (RAC Mix)
06. Restless (Andrew Weatherall Remix)

Total time: 40:55

Exact Audio Copy V1.1 from 23. June 2015

EAC extraction logfile from 26. October 2015, 23:37

New Order / Restless

Used drive : PIONEER DVD-RW DVR-221L Adapter: 1 ID: 2

Read mode : Secure
Utilize accurate stream : Yes
Defeat audio cache : Yes
Make use of C2 pointers : No

Read offset correction : 6
Overread into Lead-In and Lead-Out : No
Fill up missing offset samples with silence : Yes
Delete leading and trailing silent blocks : No
Null samples used in CRC calculations : Yes
Used interface : Native Win32 interface for Win NT & 2000
Gap handling : Appended to previous track

Used output format : User Defined Encoder
Selected bitrate : 1024 kBit/s
Quality : High
Add ID3 tag : Yes
Command line compressor : C:\Program Files (x86)\Exact Audio Copy\FLAC\FLAC.EXE
Additional command line options : -6 -V -T "COMMENT=ripped by RRC" -T "ARTIST=%artist%" -T "TITLE=%title%" -T "ALBUM=%albumtitle%" -T "DATE=%year%" -T "TRACKNUMBER=%tracknr%" -T "GENRE=%genre%" -T "BAND=%albuminterpret%" -T "ALBUMARTIST=%albuminterpret%" -T "COMPOSER=%composer%" %haslyrics%–tag-from-file=LYRICS="%lyricsfile%"%haslyrics% -T "DISCNUMBER=%cdnumber%" -T "TOTALDISCS=%totalcds%" -T "TOTALTRACKS=%numtracks%" %hascover%–picture="%coverfile%"%hascover% %source%


TOC of the extracted CD

Track | Start | Length | Start sector | End sector
––––––––––––––––––––––––––––-
1 | 0:00.00 | 4:34.28 | 0 | 20577
2 | 4:34.28 | 8:13.61 | 20578 | 57613
3 | 12:48.14 | 6:48.13 | 57614 | 88226
4 | 19:36.27 | 6:46.74 | 88227 | 118750
5 | 26:23.26 | 6:44.50 | 118751 | 149100
6 | 33:08.01 | 7:47.49 | 149101 | 184174


Track 1

Filename E:\RRCLtd Rip\01-Restless (Single version).wav

Pre-gap length 0:00:02.00

Peak level 99.6 %
Extraction speed 2.8 X
Track quality 100.0 %
Test CRC 7F62B34F
Copy CRC 7F62B34F
Track not present in AccurateRip database
Copy OK

Track 2

Filename E:\RRCLtd Rip\02-Restless (Extended 12 Mix).wav

Pre-gap length 0:00:01.57

Peak level 97.9 %
Extraction speed 3.4 X
Track quality 100.0 %
Test CRC 1D4CAA36
Copy CRC 1D4CAA36
Track not present in AccurateRip database
Copy OK

Track 3

Filename E:\RRCLtd Rip\03-Restless (Agoria Remix).wav

Pre-gap length 0:00:01.45

Peak level 91.2 %
Extraction speed 3.9 X
Track quality 100.0 %
Test CRC E89F74BA
Copy CRC E89F74BA
Track not present in AccurateRip database
Copy OK

Track 4

Filename E:\RRCLtd Rip\04-Restless (xxxy Build Up Mix).wav

Pre-gap length 0:00:01.57

Peak level 97.7 %
Extraction speed 3.6 X
Track quality 99.9 %
Test CRC 13BC1EAE
Copy CRC 13BC1EAE
Track not present in AccurateRip database
Copy OK

Track 5

Filename E:\RRCLtd Rip\05-Restless (RAC Mix).wav

Pre-gap length 0:00:00.69

Peak level 96.6 %
Extraction speed 4.6 X
Track quality 100.0 %
Test CRC 81239F27
Copy CRC 81239F27
Track not present in AccurateRip database
Copy OK

Track 6

Filename E:\RRCLtd Rip\06-Restless (Andrew Weatherrall Remix).wav

Pre-gap length 0:00:01.57

Peak level 97.7 %
Extraction speed 5.0 X
Track quality 100.0 %
Test CRC 8FFB387E
Copy CRC 8FFB387E
Track not present in AccurateRip database
Copy OK


None of the tracks are present in the AccurateRip database

No errors occurred

End of status report

–– CUETools DB Plugin V2.1.6

[CTDB TOCID: J.AwVLmcfBPHIw7IZuArfSmCN1I-] found
Submit result: already submitted
Track | CTDB Status
1 | (12/14) Accurately ripped, or (2/14) differs in 179 samples @02:33:52
2 | (14/14) Accurately ripped
3 | (12/14) Accurately ripped, or (2/14) differs in 358 samples @03:18:67,03:21:41
4 | (12/14) Accurately ripped, or (2/14) differs in 180 samples @01:33:02
5 | (14/14) Accurately ripped
6 | (12/14) Accurately ripped, or (2/14) differs in 179 samples @07:36:13


==== Log checksum 1318E5B987F601BA7DDA7D8AEA92785AD2D17007E0B7EFEF431C091906F34160 ====

[CUETools log; Date: 22.04.2022 18:01:05; Version: 2.1.4]
[CTDB TOCID: J.AwVLmcfBPHIw7IZuArfSmCN1I-] found.
Track | CTDB Status
1 | (54/57) Accurately ripped, or (3/57) differs in 179 samples @02:33:52
2 | (57/57) Accurately ripped
3 | (54/57) Accurately ripped, or (3/57) differs in 358 samples @03:18:67,03:21:41
4 | (54/57) Accurately ripped, or (3/57) differs in 180 samples @01:33:02
5 | (57/57) Accurately ripped
6 | (54/57) Accurately ripped, or (3/57) differs in 179 samples @07:36:13
[AccurateRip ID: 00096fce-0033086d-56099706] found.
Track [ CRC | V2 ] Status
01 [baf8bb06|0d78c1e9] (00+22/22) Accurately ripped
02 [51830229|8c9242e5] (00+22/22) Accurately ripped
03 [f287bfeb|dfacff4b] (00+22/22) Accurately ripped
04 [18e323c6|7e4d06a4] (00+22/22) Accurately ripped
05 [3118490b|60d6c765] (00+22/22) Accurately ripped
06 [672fd5a2|2616ad32] (00+22/22) Accurately ripped

Track Peak [ CRC32 ] [W/O NULL] [ LOG ]
– 99,6 [66C53BA6] [936A0AB2]
01 99,6 [7F62B34F] [BF6F7B8C] CRC32
02 97,9 [1D4CAA36] [41513401] CRC32
03 91,2 [E89F74BA] [9DE0A415] CRC32
04 97,7 [13BC1EAE] [760407C0] CRC32
05 96,6 [81239F27] [469C0C7C] CRC32
06 97,7 [8FFB387E] [2D46C8D3] CRC32

Thanks to RRC

See also: