Tags
Language
Tags

New Order - Waiting For The Sirens' Call [CDS] (2005)

Posted By:
New Order - Waiting For The Sirens' Call [CDS] (2005)

New Order - Waiting For The Sirens' Call [CDS] (2005)
EAC Rip | FLAC (tracks+.cue+log) - 85 MB | MP3 CBR 320 kbps (LAME 3.93) - 28 MB | Covers - 21 MB
Genre: New Wave, Synth-pop | RAR 3% Rec. | Label: London Records (NUOCD15)

"Waiting For The Sirens' Call" is the 3rd single from their eighth studio album.
Rising from the ashes of the legendary British post-punk unit Joy Division, New Order triumphed over tragedy to emerge as one of the most acclaimed bands of the 1980s; embracing the electronic textures and disco rhythms of the underground club culture many years in advance of its contemporaries, the group's pioneering fusion of new wave aesthetics and dance music successfully bridged the gap between the two worlds, creating a distinctively thoughtful and oblique brand of synth pop appealing equally to the mind, body, and soul.
Tracklist:
01. Waiting For The Sirens' Call (Rich Costey Mix)
02. Waiting For The Sirens' Call (Jacknife Lee Remix)

Total time: 11:50

Exact Audio Copy V1.3 from 2. September 2016

EAC extraction logfile from 15. June 2019, 12:39

New Order / Waiting For The Sirens' Call

Used drive : PIONEER DVD-RW DVR-215 Adapter: 1 ID: 2

Read mode : Secure
Utilize accurate stream : Yes
Defeat audio cache : Yes
Make use of C2 pointers : No

Read offset correction : 48
Overread into Lead-In and Lead-Out : No
Fill up missing offset samples with silence : Yes
Delete leading and trailing silent blocks : No
Null samples used in CRC calculations : Yes
Used interface : Native Win32 interface for Win NT & 2000
Gap handling : Appended to previous track

Used output format : User Defined Encoder
Selected bitrate : 1024 kBit/s
Quality : High
Add ID3 tag : No
Command line compressor : C:\Program Files (x86)\Exact Audio Copy\FLAC\FLAC.EXE
Additional command line options : -6 -V -T "COMMENT=Ripped by RRCLtd" -T "ARTIST=%artist%" -T "TITLE=%title%" -T "ALBUM=%albumtitle%" -T "DATE=%year%" -T "TRACKNUMBER=%tracknr%" -T "GENRE=%genre%" -T "BAND=%albuminterpret%" -T "ALBUMARTIST=%albuminterpret%" -T "COMPOSER=%composer%" %haslyrics%–tag-from-file=LYRICS="%lyricsfile%"%haslyrics% -T "DISCNUMBER=%cdnumber%" -T "TOTALDISCS=%totalcds%" -T "TOTALTRACKS=%numtracks%" %hascover%–picture="%coverfile%"%hascover% %source%


TOC of the extracted CD

Track | Start | Length | Start sector | End sector
––––––––––––––––––––––––––––-
1 | 0:00.00 | 5:39.57 | 0 | 25481
2 | 5:39.57 | 6:10.35 | 25482 | 53266


Track 1

Filename E:\RRCLtd Rip\01-Waiting For The Sirens' Call (Rich Costey Mix).wav

Pre-gap length 0:00:02.00

Peak level 96.6 %
Extraction speed 4.6 X
Track quality 100.0 %
Test CRC 34DB2639
Copy CRC 34DB2639
Accurately ripped (confidence 6) [A0F2364A] (AR v2)
Copy OK

Track 2

Filename E:\RRCLtd Rip\02-Waiting For The Sirens' Call (Jacknife Lee Remix).wav

Pre-gap length 0:00:02.00

Peak level 97.9 %
Extraction speed 5.3 X
Track quality 100.0 %
Test CRC 8B870C88
Copy CRC 8B870C88
Accurately ripped (confidence 7) [FCC21B6B] (AR v2)
Copy OK


All tracks accurately ripped

No errors occurred

End of status report

–– CUETools DB Plugin V2.1.6

[CTDB TOCID: rzUzwp_hZ3kfIidMinYoiYgI_LA-] found
Submit result: rzUzwp_hZ3kfIidMinYoiYgI_LA- has been confirmed
Track | CTDB Status
1 | (13/13) Accurately ripped
2 | (13/13) Accurately ripped


==== Log checksum 10442C3A1475045900F59236D5C693D489B1CF9F0DBFC64AAE597776846B61CF ====

[CUETools log; Date: 21.09.2021 16:33:17; Version: 2.1.4]
[CTDB TOCID: rzUzwp_hZ3kfIidMinYoiYgI_LA-] found.
Track | CTDB Status
1 | (20/20) Accurately ripped
2 | (20/20) Accurately ripped
[AccurateRip ID: 0001339d-0003374e-0a02c602] found.
Track [ CRC | V2 ] Status
01 [9dffe9d1|a0f2364a] (06+06/14) Accurately ripped
02 [e6a98bb0|fcc21b6b] (05+07/14) Accurately ripped
Offsetted by 646:
01 [d99e7801] (02/14) Accurately ripped
02 [7eede4a4] (02/14) Accurately ripped

Track Peak [ CRC32 ] [W/O NULL] [ LOG ]
– 97,9 [08DCA3D3] [CCD03578]
01 96,6 [34DB2639] [942460B4] CRC32
02 97,9 [8B870C88] [AB1BA131] CRC32

Thanks to RRC

See also: