Tags
Language
Tags
June 2024
Su Mo Tu We Th Fr Sa
26 27 28 29 30 31 1
2 3 4 5 6 7 8
9 10 11 12 13 14 15
16 17 18 19 20 21 22
23 24 25 26 27 28 29
30 1 2 3 4 5 6

Nicki Parrott: Collection (2011-2017) Re-up

Posted By: v3122
Nicki Parrott: Collection (2011-2017) Re-up

Nicki Parrott: Collection (2011-2017)
EAC | Flac(Image) + Cue + Log & MP3 CBR 320Kbps
6CD | Venus | Japan, Russia | ~ 2262 or 905 Mb | Scans & Covers -> 125 Mb
Vocal Jazz

Celebrated as an instrumentalist and a vocalist, Australian artist Nicki Parrott has earned acclaim as one of the most engaging talents to emerge on the jazz scene in the 21st century. Born in Newcastle, New South Wales, Australia in 1970, Parrott had a precocious talent for music, first learning to play the piano when she was four years old. She would become proficient on piano and flute, but when her sister Lisa, who plays saxophone, was looking for a bassist for her jazz combo, Nicki took up the double bass, and fell in love with the instrument. At the age of 16, Parrott earned a scholarship to attend the Pan Pacific Music Camps, and after completing high school, she relocated to Sydney to enroll at the New South Wales Conservatorium of Music. Parrott was soon performing with a number of leading Australian jazz musicians (including Mike Nock, Paul Grabowski, and Dale Barlow), as well as American artists Chuck Findley and Bobby Shew. In 1994, Parrott left Australia for New York City thanks to an Arts Council grant, and she began studying bass with Rufus Reid. In 2000, Parrott landed an especially prestigious gig – she became bassist with Les Paul's combo for the legendary guitarist's weekly performances at the Manhattan jazz spot Iridium. Paul became her mentor, and encouraged her as a vocalist as well as a bassist.

Awabakal Suite In 2001, Nicki made her recording debut with Awabakal Suite, a collaborate effort with her sister Lisa; the album featured an original composition, "Come and Get It," which in 1992 took first prize in the Jazz Action Society's Annual Song Competition. Nicki also performed in a number of Broadway musicals, including Avenue Q, You're a Good Man, Charlie Brown, and Jekyll & Hyde. In 2007 she released an album with pianist Rossano Sportiello, People Will Say We're in Love, in which they essayed a number of jazz pieces and vintage pop standards. Nicki's first solo effort, 2008's Moon River, was the first of a series of albums in which she performed a handful of favorite standards with graceful jazz arrangements and her subtle but expert vocals. It would be one of 17 albums the prolific Parrott cut for Venus Records between 2008 and 2017; she also cut several more albums with Sportiello, and kept up a busy schedule playing jazz clubs and music festivals around the world. In 2017 Parrott also released Dear Blossom, her tribute to the influential jazz vocalist Blossom Dearie.

by Mark Deming, allmusic

Nicki Parrott: Collection (2011-2017):

Nicki Parrott: Collection (2011-2017) Re-up

Tracklist CD1 - 2011 - Can’t Take My Eyes Off You:
Venus Records, VHCO-1057, Japan

01.Can’t Take My Eyes Off You [04:19]
02.Crazy [03:39]
03.Detour Ahead [05:33]
04.Downtown [03:09]
05.I’ve Got A Crush On You [05:57]
06.Let’s Face The Music And [04:45]
07.Love Dance [04:31]
08.Sugar Sweet [04:19]
09.Somewhere Over The Rainbow [05:33]
10.Say A Little Prayer [05:12]
11.Skylark [04:59]
12.You’ll Never Get To Heaven [03:38]
13.Best Things In Life Are Free [03:15]

Exact Audio Copy V1.0 beta 3 from 29. August 2011

Отчёт EAC об извлечении, выполненном 2. апреля 2012, 16:23

Nicki Parrott / Can’t Take My Eyes Off You

Дисковод: TSSTcorpCDDVDW SH-S223C Adapter: 5 ID: 0

Режим чтения : Достоверность
Использование точного потока : Да
Отключение кэша аудио : Да
Использование указателей C2 : Нет

Коррекция смещения при чтении : 697
Способность читать области Lead-in и Lead-out : Нет
Заполнение пропущенных сэмплов тишиной : Да
Удаление блоков с тишиной в начале и конце : Нет
При вычислениях CRC использовались нулевые сэмплы : Да
Интерфейс : Встроенный Win32-интерфейс для Win NT/2000
Обработка зазоров : Добавлено к предыдущему треку

Выходной формат : Пользовательский кодировщик
Выбранный битрейт : 128 kBit/s
Качество : Высокий
Добавление ID3-тега : Нет
Утилита сжатия : C:\Program Files\Exact Audio Copy\Flac\flac.exe
Дополнительные параметры : -V -8 -T "Genre=%genre%" -T "Artist=%artist%" -T "Title=%title%" -T "Album=%albumtitle%" -T "Date=%year%" -T "Tracknumber=%tracknr%" -T "Comment=%comment%" %source%


TOC извлечённого CD

Трек | Старт | Длительность | Начальный сектор | Конечный сектор
––––––––––––––––––––––––––––––––––-
1 | 0:00.00 | 4:19.56 | 0 | 19480
2 | 4:19.56 | 3:39.26 | 19481 | 35931
3 | 7:59.07 | 5:33.14 | 35932 | 60920
4 | 13:32.21 | 3:09.28 | 60921 | 75123
5 | 16:41.49 | 5:57.45 | 75124 | 101943
6 | 22:39.19 | 4:45.49 | 101944 | 123367
7 | 27:24.68 | 4:31.66 | 123368 | 143758
8 | 31:56.59 | 4:19.45 | 143759 | 163228
9 | 36:16.29 | 5:33.47 | 163229 | 188250
10 | 41:50.01 | 5:12.43 | 188251 | 211693
11 | 47:02.44 | 4:59.15 | 211694 | 234133
12 | 52:01.59 | 3:38.35 | 234134 | 250518
13 | 55:40.19 | 3:15.66 | 250519 | 265209


Трек 1

Имя файла E:\Ozifra\2011.Nicki Parrott - Can't Take My Eyes Off You\01. Can’t Take My Eyes Off You.wav

Длина предзазора 0:00:02.00

Пиковый уровень 100.0 %
Скорость извлечения 2.0 X
Качество трека 100.0 %
CRC теста C3071180
CRC копии C3071180
Точность не определена (достоверность 3) [B5F97867], AccurateRip вернул [EFA4C47D] (AR v2)
Копирование… OK

Трек 2

Имя файла E:\Ozifra\2011.Nicki Parrott - Can't Take My Eyes Off You\02. Crazy.wav

Длина предзазора 0:00:03.45

Пиковый уровень 100.0 %
Скорость извлечения 2.2 X
Качество трека 100.0 %
CRC теста 4EC70A41
CRC копии 4EC70A41
Точность не определена (достоверность 3) [9EC97D4C], AccurateRip вернул [6796D895] (AR v2)
Копирование… OK

Трек 3

Имя файла E:\Ozifra\2011.Nicki Parrott - Can't Take My Eyes Off You\03. Detour Ahead.wav

Длина предзазора 0:00:03.45

Пиковый уровень 100.0 %
Скорость извлечения 2.5 X
Качество трека 100.0 %
CRC теста 45C617D9
CRC копии 45C617D9
Точность не определена (достоверность 3) [2702BC24], AccurateRip вернул [50E6E416] (AR v2)
Копирование… OK

Трек 4

Имя файла E:\Ozifra\2011.Nicki Parrott - Can't Take My Eyes Off You\04. Downtown.wav

Длина предзазора 0:00:03.45

Пиковый уровень 100.0 %
Скорость извлечения 2.5 X
Качество трека 100.0 %
CRC теста 34C69EA7
CRC копии 34C69EA7
Точность не определена (достоверность 3) [5D6C33A0], AccurateRip вернул [7344CBE3] (AR v2)
Копирование… OK

Трек 5

Имя файла E:\Ozifra\2011.Nicki Parrott - Can't Take My Eyes Off You\05. I’ve Got A Crush On You.wav

Длина предзазора 0:00:03.45

Пиковый уровень 100.0 %
Скорость извлечения 2.9 X
Качество трека 100.0 %
CRC теста 5DD0CEE5
CRC копии 5DD0CEE5
Точность не определена (достоверность 3) [AA353EB6], AccurateRip вернул [3032B0EC] (AR v2)
Копирование… OK

Трек 6

Имя файла E:\Ozifra\2011.Nicki Parrott - Can't Take My Eyes Off You\06. Let’s Face The Music And.wav

Длина предзазора 0:00:03.45

Пиковый уровень 100.0 %
Скорость извлечения 3.1 X
Качество трека 100.0 %
CRC теста 7D299E72
CRC копии 7D299E72
Точность не определена (достоверность 3) [AD8C123F], AccurateRip вернул [146456A3] (AR v2)
Копирование… OK

Трек 7

Имя файла E:\Ozifra\2011.Nicki Parrott - Can't Take My Eyes Off You\07. Love Dance.wav

Длина предзазора 0:00:03.45

Пиковый уровень 100.0 %
Скорость извлечения 2.9 X
Качество трека 99.9 %
CRC теста CFFAA45F
CRC копии CFFAA45F
Точность не определена (достоверность 3) [8C5B6221], AccurateRip вернул [B01ACE3D] (AR v2)
Копирование… OK

Трек 8

Имя файла E:\Ozifra\2011.Nicki Parrott - Can't Take My Eyes Off You\08. Sugar Sweet.wav

Длина предзазора 0:00:03.45

Пиковый уровень 100.0 %
Скорость извлечения 3.0 X
Качество трека 99.9 %
CRC теста 964BE5A4
CRC копии 964BE5A4
Точность не определена (достоверность 3) [06D414DF], AccurateRip вернул [AA927872] (AR v2)
Копирование… OK

Трек 9

Имя файла E:\Ozifra\2011.Nicki Parrott - Can't Take My Eyes Off You\09. Somewhere Over The Rainbow.wav

Длина предзазора 0:00:03.45

Пиковый уровень 100.0 %
Скорость извлечения 3.3 X
Качество трека 99.9 %
CRC теста 46FF5684
CRC копии 46FF5684
Точность не определена (достоверность 3) [21F0B8E2], AccurateRip вернул [9D039F6B] (AR v2)
Копирование… OK

Трек 10

Имя файла E:\Ozifra\2011.Nicki Parrott - Can't Take My Eyes Off You\10. Say A Little Prayer.wav

Длина предзазора 0:00:03.45

Пиковый уровень 100.0 %
Скорость извлечения 3.8 X
Качество трека 100.0 %
CRC теста 1B1F1929
CRC копии 1B1F1929
Точность не определена (достоверность 3) [E886473B], AccurateRip вернул [463EBD9B] (AR v2)
Копирование… OK

Трек 11

Имя файла E:\Ozifra\2011.Nicki Parrott - Can't Take My Eyes Off You\11. Skylark.wav

Длина предзазора 0:00:03.45

Пиковый уровень 100.0 %
Скорость извлечения 3.9 X
Качество трека 100.0 %
CRC теста 147CDEE0
CRC копии 147CDEE0
Точность не определена (достоверность 3) [B8E218CB], AccurateRip вернул [A2FBE3DF] (AR v2)
Копирование… OK

Трек 12

Имя файла E:\Ozifra\2011.Nicki Parrott - Can't Take My Eyes Off You\12. You’ll Never Get To Heaven.wav

Длина предзазора 0:00:03.45

Пиковый уровень 100.0 %
Скорость извлечения 3.4 X
Качество трека 99.9 %
CRC теста C173C03E
CRC копии C173C03E
Точность не определена (достоверность 3) [69ACA8B2], AccurateRip вернул [EC0B0F47] (AR v2)
Копирование… OK

Трек 13

Имя файла E:\Ozifra\2011.Nicki Parrott - Can't Take My Eyes Off You\13. Best Things In Life Are Free.wav

Длина предзазора 0:00:03.45

Пиковый уровень 100.0 %
Скорость извлечения 3.3 X
Качество трека 99.9 %
CRC теста 390E1DA4
CRC копии 390E1DA4
Точность не определена (достоверность 3) [CB64F220], AccurateRip вернул [6C6AF968] (AR v2)
Копирование… OK


Ни один трек не прошёл проверки на точность
В вашей базе может быть иной вариант штамповки диска

Ошибок не произошло

Конец отчёта

==== Контрольная сумма отчёта 616354CF2D7A55D36F351C3252025B125302B9B2D2BA9490CE1A56F873101E82 ====


[CUETools log; Date: 17.02.2018 10:52:36; Version: 2.1.5]
[CTDB TOCID: abotQJRYsbIjG1sXnDHzwtWeXyA-] found.
Track | CTDB Status
1 | (35/35) Accurately ripped
2 | (35/35) Accurately ripped
3 | (35/35) Accurately ripped
4 | (35/35) Accurately ripped
5 | (35/35) Accurately ripped
6 | (35/35) Accurately ripped
7 | (35/35) Accurately ripped
8 | (35/35) Accurately ripped
9 | (35/35) Accurately ripped
10 | (35/35) Accurately ripped
11 | (35/35) Accurately ripped
12 | (35/35) Accurately ripped
13 | (33/35) Accurately ripped
[AccurateRip ID: 001c969e-011fa43b-990dd00d] found.
Track [ CRC | V2 ] Status
01 [f1d091ed|b5f97867] (00+00/32) No match
02 [9b14ceb5|9ec97d4c] (00+00/32) No match
03 [08d79746|2702bc24] (00+00/32) No match
04 [05aafd83|5d6c33a0] (00+00/32) No match
05 [2bf2651c|aa353eb6] (00+00/32) No match
06 [0a955a73|ad8c123f] (00+00/32) No match
07 [af1dfcbd|8c5b6221] (00+00/32) No match
08 [b3fee142|06d414df] (00+00/32) No match
09 [92d1bf6b|21f0b8e2] (00+00/32) No match
10 [e349cd9b|e886473b] (00+00/32) No match
11 [15fd249f|b8e218cb] (00+00/32) No match
12 [a228b847|69aca8b2] (00+00/32) No match
13 [d466511a|cb64f220] (00+00/32) No match
Offsetted by 48:
01 [efa4c47d] (05/32) Accurately ripped
02 [6796d895] (05/32) Accurately ripped
03 [50e6e416] (05/32) Accurately ripped
04 [7344cbe3] (05/32) Accurately ripped
05 [3032b0ec] (05/32) Accurately ripped
06 [146456a3] (05/32) Accurately ripped
07 [b01ace3d] (05/32) Accurately ripped
08 [aa927872] (05/32) Accurately ripped
09 [9d039f6b] (05/32) Accurately ripped
10 [463ebd9b] (05/32) Accurately ripped
11 [a2fbe3df] (05/32) Accurately ripped
12 [ec0b0f47] (05/32) Accurately ripped
13 [6c6af968] (05/32) Accurately ripped

Track Peak [ CRC32 ] [W/O NULL] [ LOG ]
– 100,0 [DFFC0003] [5F6866EB]
01 100,0 [C3071180] [4F889A21] CRC32
02 100,0 [4EC70A41] [56290D15] CRC32
03 100,0 [45C617D9] [A35A7983] CRC32
04 100,0 [34C69EA7] [DBE25EA0] CRC32
05 100,0 [5DD0CEE5] [50F6A2AD] CRC32
06 100,0 [7D299E72] [F26D0638] CRC32
07 100,0 [CFFAA45F] [159F659D] CRC32
08 100,0 [964BE5A4] [CC087496] CRC32
09 100,0 [46FF5684] [7653A660] CRC32
10 100,0 [1B1F1929] [39495779] CRC32
11 100,0 [147CDEE0] [1962EADA] CRC32
12 100,0 [C173C03E] [E5C06DEA] CRC32
13 100,0 [390E1DA4] [547F4FB8] CRC32


Nicki Parrott: Collection (2011-2017) Re-up

Tracklist CD2 - 2012 - Autumn Leaves:
Venus Records, VHCO-1086, Russia

01. Autumn leaves
02. Early Autumn
03. Autumn In New York
04. Autumn Nocturne
05. Autumn Serenade
06. Autumn In Rome
07. Tis Autumn
08. September Song
09. Lullaby of the Leaves
10. Willow Weep For Me
11. Maybe September
12. September In the Rain
13. When October Goes
14. Stormy Weather

Exact Audio Copy V1.0 beta 3 from 29. August 2011

EAC extraction logfile from 5. December 2012, 11:53

Nicki Parrott / Autumn Leaves

Used drive : MATSHITADVD-RAM UJ-850S Adapter: 1 ID: 0

Read mode : Secure
Utilize accurate stream : Yes
Defeat audio cache : Yes
Make use of C2 pointers : No

Read offset correction : 102
Overread into Lead-In and Lead-Out : No
Fill up missing offset samples with silence : Yes
Delete leading and trailing silent blocks : No
Null samples used in CRC calculations : Yes
Used interface : Native Win32 interface for Win NT & 2000

Used output format : User Defined Encoder
Selected bitrate : 768 kBit/s
Quality : High
Add ID3 tag : No
Command line compressor : C:\Program Files\FLAC\flac.exe
Additional command line options : -V -8 -T "Date=%year%" -T "Genre=%genre%" %source%


TOC of the extracted CD

Track | Start | Length | Start sector | End sector
––––––––––––––––––––––––––––-
1 | 0:00.00 | 3:46.51 | 0 | 17000
2 | 3:46.51 | 5:12.01 | 17001 | 40401
3 | 8:58.52 | 5:24.28 | 40402 | 64729
4 | 14:23.05 | 5:16.59 | 64730 | 88488
5 | 19:39.64 | 4:31.18 | 88489 | 108831
6 | 24:11.07 | 4:13.05 | 108832 | 127811
7 | 28:24.12 | 5:13.48 | 127812 | 151334
8 | 33:37.60 | 4:29.45 | 151335 | 171554
9 | 38:07.30 | 4:42.01 | 171555 | 192705
10 | 42:49.31 | 5:44.01 | 192706 | 218506
11 | 48:33.32 | 3:42.27 | 218507 | 235183
12 | 52:15.59 | 4:31.46 | 235184 | 255554
13 | 56:47.30 | 5:07.51 | 255555 | 278630
14 | 61:55.06 | 4:32.47 | 278631 | 299077


Range status and errors

Selected range

Filename D:\Temp\Nicki Parrott - Autumn Leaves.wav

Peak level 100.0 %
Extraction speed 2.6 X
Range quality 100.0 %
Copy CRC 294F99C7
Copy OK

No errors occurred

End of status report

==== Log checksum 012FF5DE8D2A485C364FFC04B43EA81490FB5F34E1B3F3BE8D3682F54E6508D5 ====


[CUETools log; Date: 17.02.2018 10:53:44; Version: 2.1.5]
[CTDB TOCID: hSSyYy.8Swr4KZRgaH7OP9aU5Dk-] found.
Track | CTDB Status
1 | (27/27) Accurately ripped
2 | (27/27) Accurately ripped
3 | (27/27) Accurately ripped
4 | (27/27) Accurately ripped
5 | (27/27) Accurately ripped
6 | (27/27) Accurately ripped
7 | (26/27) Accurately ripped
8 | (27/27) Accurately ripped
9 | (27/27) Accurately ripped
10 | (27/27) Accurately ripped
11 | (27/27) Accurately ripped
12 | (27/27) Accurately ripped
13 | (27/27) Accurately ripped
14 | (26/27) Accurately ripped
[AccurateRip ID: 00225459-016e87fd-c10f930e] found.
Track [ CRC | V2 ] Status
01 [b87f1958|3b4c5418] (00+00/28) No match
02 [a26dc2f8|970e9e8b] (00+00/28) No match
03 [f622c132|8da76925] (00+00/28) No match
04 [73401b3c|4828e7ab] (00+00/28) No match
05 [639753c3|a6b291c7] (00+00/28) No match
06 [bde99e4e|9648c7f6] (00+00/28) No match
07 [44c02a9a|c0618247] (00+00/28) No match
08 [b6643760|5b5357c2] (00+00/28) No match
09 [68acb108|056271d9] (00+00/28) No match
10 [cd549f05|ed704906] (00+00/28) No match
11 [9d060777|9070aeb2] (00+00/28) No match
12 [eca44c78|11a4ef83] (00+00/28) No match
13 [39fd2358|fdfa4f91] (00+00/28) No match
14 [d867fc7f|7b7514c7] (00+00/28) No match
Offsetted by 30:
01 [c57d9d52] (03/28) Accurately ripped
02 [376c2418] (03/28) Accurately ripped
03 [1f07d600] (03/28) Accurately ripped
04 [90c72adc] (03/28) Accurately ripped
05 [c545694b] (03/28) Accurately ripped
06 [878800ce] (03/28) Accurately ripped
07 [565eaaee] (03/28) Accurately ripped
08 [3c66b764] (03/28) Accurately ripped
09 [46c1ac7e] (03/28) Accurately ripped
10 [609628e9] (03/28) Accurately ripped
11 [aef7f117] (03/28) Accurately ripped
12 [956eebb8] (03/28) Accurately ripped
13 [83eb6f2c] (03/28) Accurately ripped
14 [bc66e9d8] (03/28) Accurately ripped

Track Peak [ CRC32 ] [W/O NULL] [ LOG ]
– 100,0 [294F99C7] [6CB43D11] CRC32
01 100,0 [08C9AB5E] [0273C45D]
02 97,6 [B2173891] [80D803FF]
03 98,6 [EBAD8CBA] [19C9FF67]
04 96,9 [32852AE8] [DD9477C3]
05 97,6 [128A7411] [F84710A7]
06 97,7 [2EE324A1] [71DB4315]
07 97,2 [631CACCE] [B126CE24]
08 96,8 [FABD7C54] [7311A03F]
09 97,6 [18239760] [F8EB6F8E]
10 98,8 [B40D8DEE] [AAE134C1]
11 96,7 [E3662E2B] [FEF6E3D3]
12 99,1 [BE4A0F64] [B376E53A]
13 97,0 [171B1039] [A934D83D]
14 97,0 [B56EC921] [822A0430]


Nicki Parrott: Collection (2011-2017) Re-up

Tracklist CD3 - 2013 - The Last Time I Saw Paris:
Venus Records, VHCO-1120, Russia

01. Under Paris Skies
02. The Windmills Of Your Mind
03. Chanson De Maxence
04. Nuage
05. C'est Si Bon
06. I Will Wait For You
07. Hymne L'Amour
08. L'Ame Des Poetes
09. The Last Time I Saw Paris
10. The River Seine
11. La Mer
12. La Vie En Rose
13. If You Go Away
14. What Are You Doing The Rest Of Your Life?

Exact Audio Copy V1.0 beta 3 from 29. August 2011

EAC extraction logfile from 28. June 2013, 20:53

Nicki Parrott / The Last Time I Saw Paris

Used drive : TEAC CD-W552G Adapter: 0 ID: 1

Read mode : Secure
Utilize accurate stream : Yes
Defeat audio cache : Yes
Make use of C2 pointers : No

Read offset correction : 6
Overread into Lead-In and Lead-Out : No
Fill up missing offset samples with silence : Yes
Delete leading and trailing silent blocks : No
Null samples used in CRC calculations : Yes
Used interface : Native Win32 interface for Win NT & 2000

Used output format : User Defined Encoder
Selected bitrate : 1024 kBit/s
Quality : High
Add ID3 tag : No
Command line compressor : C:\Program Files (x86)\Exact Audio Copy\FLAC\FLAC.EXE
Additional command line options : -6 -V -T "ARTIST=%artist%" -T "TITLE=%title%" -T "ALBUM=%albumtitle%" -T "DATE=%year%" -T "TRACKNUMBER=%tracknr%" -T "GENRE=%genre%" -T "COMMENT=%comment%" -T "BAND=%albuminterpret%" -T "ALBUMARTIST=%albuminterpret%" -T "COMPOSER=%composer%" %haslyrics%–tag-from-file=LYRICS="%lyricsfile%"%haslyrics% -T "DISCNUMBER=%cdnumber%" -T "TOTALDISCS=%totalcds%" -T "TOTALTRACKS=%numtracks%" %hascover%–picture="%coverfile%"%hascover% %source% -o %dest%


TOC of the extracted CD

Track | Start | Length | Start sector | End sector
––––––––––––––––––––––––––––-
1 | 0:00.00 | 4:04.48 | 0 | 18347
2 | 4:04.48 | 4:12.42 | 18348 | 37289
3 | 8:17.15 | 5:19.00 | 37290 | 61214
4 | 13:36.15 | 4:54.47 | 61215 | 83311
5 | 18:30.62 | 3:44.60 | 83312 | 100171
6 | 22:15.47 | 4:41.71 | 100172 | 121317
7 | 26:57.43 | 3:55.58 | 121318 | 139000
8 | 30:53.26 | 3:25.44 | 139001 | 154419
9 | 34:18.70 | 4:08.69 | 154420 | 173088
10 | 38:27.64 | 3:59.32 | 173089 | 191045
11 | 42:27.21 | 4:58.03 | 191046 | 213398
12 | 47:25.24 | 4:14.11 | 213399 | 232459
13 | 51:39.35 | 5:05.53 | 232460 | 255387
14 | 56:45.13 | 6:29.19 | 255388 | 284581


Range status and errors

Selected range

Filename H:\2\Nicki Parrott - The Last Time I Saw Paris.wav

Peak level 100.0 %
Extraction speed 6.7 X
Range quality 99.9 %
Copy CRC 7918FF4C
Copy OK

No errors occurred

End of status report

==== Log checksum 9580F393EAD244AB52091458E13A528F9F0EC6BD153226F68414A98BAEB76552 ====


[CUETools log; Date: 17.02.2018 10:55:01; Version: 2.1.5]
[CTDB TOCID: Bn9cDxzsEOuiPNTciUpNEZOQ9oA-] found.
Track | CTDB Status
1 | (57/57) Accurately ripped
2 | (56/57) Accurately ripped
3 | (57/57) Accurately ripped
4 | (57/57) Accurately ripped
5 | (57/57) Accurately ripped
6 | (57/57) Accurately ripped
7 | (57/57) Accurately ripped
8 | (56/57) Accurately ripped
9 | (53/57) Accurately ripped
10 | (56/57) Accurately ripped
11 | (57/57) Accurately ripped
12 | (57/57) Accurately ripped
13 | (57/57) Accurately ripped
14 | (51/57) Accurately ripped
[AccurateRip ID: 001f8290-015004ef-be0ed20e] found.
Track [ CRC | V2 ] Status
01 [1ff4b72a|d6f41553] (00+00/31) No match
02 [53f457b3|b830063c] (00+00/31) No match
03 [9a359c7c|7466d79a] (00+00/31) No match
04 [3efb1bea|773bb6e4] (00+00/31) No match
05 [e614d501|9e199f94] (00+00/31) No match
06 [8b49a06d|796fac91] (00+00/31) No match
07 [d87340a2|14e5d156] (00+00/31) No match
08 [039529be|6f3dff6d] (00+00/31) No match
09 [8e7c2828|9df0f8c4] (00+00/31) No match
10 [15dce142|7b07990f] (00+00/31) No match
11 [4ddd2f76|bd8101ca] (00+00/31) No match
12 [0d72b44d|3b060fd0] (00+00/31) No match
13 [6882e753|f1ea6f23] (00+00/31) No match
14 [8d73a38a|d3fb0f93] (00+00/30) No match
Offsetted by 6:
01 [7347d72a] (02/31) Accurately ripped
02 [55dcae0d] (02/31) Accurately ripped
03 [aa853482] (02/31) Accurately ripped
04 [caf34244] (02/31) Accurately ripped
05 [07413dbb] (02/31) Accurately ripped
06 [a2a45999] (02/31) Accurately ripped
07 [edad57fe] (02/31) Accurately ripped
08 [0b27a800] (02/31) Accurately ripped
09 [449969f2] (02/31) Accurately ripped
10 [ea825f32] (02/31) Accurately ripped
11 [f76baa1c] (02/31) Accurately ripped
12 [16ed5297] (02/31) Accurately ripped
13 [3b64334b] (02/31) Accurately ripped
14 [4e55b38d] (02/30) Accurately ripped

Track Peak [ CRC32 ] [W/O NULL] [ LOG ]
– 100,0 [7918FF4C] [FB072DFB] CRC32
01 98,9 [BCD8DE8A] [00F89E12]
02 99,8 [185318B5] [B919E969]
03 100,0 [1094C871] [4872BB9B]
04 100,0 [10C5D3FB] [B0FB66F1]
05 100,0 [D7E63AF7] [507F2C82]
06 99,9 [92C13C08] [446CC80D]
07 96,7 [3CAD95EF] [BDAB19A9]
08 100,0 [BEDFDFB4] [E78FB1C3]
09 100,0 [9C86D5B8] [286DBFAF]
10 100,0 [7F6F1F67] [63B213BC]
11 100,0 [EAE639E1] [ABEFED79]
12 100,0 [47249505] [B3BC23A5]
13 97,5 [EE1D5F54] [92095323]
14 98,4 [886CEE4D] [925F42DA]


Nicki Parrott: Collection (2011-2017) Re-up

Tracklist CD4 - 2014 - Angel Eyes:
Venus Records, VHCO-1167, Japan

01. I Wanna Be Around [0:04:08.21]
02. You Make Me Feel So Young [0:03:23.60]
03. The Nearness Of You [0:04:39.07]
04. I'll Never Be The Same [0:03:11.17]
05. The Very Thought Of You [0:04:34.31]
06. One For My Baby [0:04:10.17]
07. I Gotta Right To Sing The Blues [0:04:06.12]
08. I Told Ya I Love Ya, Now Get Out [0:04:52.73]
09. I'm Beginning To See The Light [0:03:50.52]
10. Can Anyone Explain (No, No, No) [0:03:17.09]
11. Something's Gotta Give [0:02:10.71]
12. I'm Glad There Is You [0:04:59.32]
13. I Cried For You [0:02:46.28]
14. You Don't Know [0:03:02.00]
15. Angel Eyes [0:05:45.56]

Exact Audio Copy V1.0 beta 3 from 29. August 2011

Отчёт EAC об извлечении, выполненном 22. марта 2015, 2:04

Nicki Parrott / Angel Eyes

Дисковод: ATAPI iHAS122 C Adapter: 1 ID: 1

Режим чтения : Достоверность
Использование точного потока : Да
Отключение кэша аудио : Да
Использование указателей C2 : Нет

Коррекция смещения при чтении : 6
Способность читать области Lead-in и Lead-out : Нет
Заполнение пропущенных сэмплов тишиной : Да
Удаление блоков с тишиной в начале и конце : Нет
При вычислениях CRC использовались нулевые сэмплы : Да
Интерфейс : Встроенный Win32-интерфейс для Win NT/2000

Выходной формат : Пользовательский кодировщик
Выбранный битрейт : 768 kBit/s
Качество : Высокий
Добавление ID3-тега : Нет
Утилита сжатия : C:\Program Files\Exact Audio Copy\FLAC\FLAC.EXE
Дополнительные параметры : -6 -V -T "ARTIST=%artist%" -T "TITLE=%title%" -T "ALBUM=%albumtitle%" -T "DATE=%year%" -T "TRACKNUMBER=%tracknr%" -T "GENRE=%genre%" -T "COMMENT=%comment%" -T "BAND=%albuminterpret%" -T "ALBUMARTIST=%albuminterpret%" -T "COMPOSER=%composer%" %haslyrics%–tag-from-file=LYRICS="%lyricsfile%"%haslyrics% -T "DISCNUMBER=%cdnumber%" -T "TOTALDISCS=%totalcds%" -T "TOTALTRACKS=%numtracks%" %hascover%–picture="%coverfile%"%hascover% %source% -o %dest%


TOC извлечённого CD

Трек | Старт | Длительность | Начальный сектор | Конечный сектор
––––––––––––––––––––––––––––––––––-
1 | 0:00.00 | 4:08.21 | 0 | 18620
2 | 4:08.21 | 3:23.60 | 18621 | 33905
3 | 7:32.06 | 4:39.07 | 33906 | 54837
4 | 12:11.13 | 3:11.17 | 54838 | 69179
5 | 15:22.30 | 4:34.31 | 69180 | 89760
6 | 19:56.61 | 4:10.17 | 89761 | 108527
7 | 24:07.03 | 4:06.12 | 108528 | 126989
8 | 28:13.15 | 4:52.73 | 126990 | 148962
9 | 33:06.13 | 3:50.52 | 148963 | 166264
10 | 36:56.65 | 3:17.09 | 166265 | 181048
11 | 40:13.74 | 2:10.71 | 181049 | 190869
12 | 42:24.70 | 4:59.32 | 190870 | 213326
13 | 47:24.27 | 2:46.28 | 213327 | 225804
14 | 50:10.55 | 3:02.00 | 225805 | 239454
15 | 53:12.55 | 5:45.56 | 239455 | 265385


Характеристики диапазона извлечения и сообщения об ошибках

Выбранный диапазон

Имя файла C:\Users\TITANIUM\Desktop\Nicki Parrott - Angel Eyes - 2014 - 59'00''\Nicki Parrott - Angel Eyes.wav

Пиковый уровень 100.0 %
Скорость извлечения 8.8 X
Качество диапазона 99.9 %
CRC теста C6FB06A2
CRC копии C6FB06A2
Копирование… OK

Ошибок не произошло

Конец отчёта

==== Контрольная сумма отчёта 54CD63AA04CA626F3DC09AA1877E5052B54730C2B09CDE9AD138742336F81911 ====


[CUETools log; Date: 17.02.2018 10:56:03; Version: 2.1.5]
[CTDB TOCID: TEtII_mcA6e0DVlXYS6.JBA3FC4-] found.
Track | CTDB Status
1 | (49/50) Accurately ripped
2 | (50/50) Accurately ripped
3 | (50/50) Accurately ripped
4 | (50/50) Accurately ripped
5 | (50/50) Accurately ripped
6 | (50/50) Accurately ripped
7 | (50/50) Accurately ripped
8 | (50/50) Accurately ripped
9 | (50/50) Accurately ripped
10 | (50/50) Accurately ripped
11 | (50/50) Accurately ripped
12 | (50/50) Accurately ripped
13 | (50/50) Accurately ripped
14 | (50/50) Accurately ripped
15 | (48/50) Accurately ripped
[AccurateRip ID: 00208bd0-016f5fb5-db0dd20f] found.
Track [ CRC | V2 ] Status
01 [f5ebd98a|49f4c473] (00+00/23) No match
02 [a7ccc7c3|94dc4931] (00+00/23) No match
03 [f2d757b3|cc41c7af] (00+00/23) No match
04 [18ac0137|2e146662] (00+00/23) No match
05 [447c1007|74b58fe8] (00+00/23) No match
06 [e94d4e45|d3d016f6] (00+00/23) No match
07 [72ba7641|3c52332d] (00+00/23) No match
08 [12e6d272|b68c9abc] (00+00/23) No match
09 [c5ff3bd7|821a7e52] (00+00/23) No match
10 [5502a234|b660254f] (00+00/23) No match
11 [0cc17409|fec31f49] (00+00/23) No match
12 [b318e6d8|765ade68] (00+00/23) No match
13 [e2534892|ee476100] (00+00/23) No match
14 [60e87835|ced65698] (00+00/23) No match
15 [9b44a855|0e892c69] (00+00/22) No match
Offsetted by 72:
01 [1bc4221a] (00/23) No match (V2 was not tested)
02 [6686ac7b] (00/23) No match (V2 was not tested)
03 [b2528eab] (00/23) No match (V2 was not tested)
04 [500429ff] (00/23) No match (V2 was not tested)
05 [69e90977] (00/23) No match (V2 was not tested)
06 [23dd0e15] (00/23) No match (V2 was not tested)
07 [423bd639] (00/23) No match (V2 was not tested)
08 [71a0f17a] (00/23) No match (V2 was not tested)
09 [a999cc67] (00/23) No match (V2 was not tested)
10 [91b4d774] (00/23) No match (V2 was not tested)
11 [cf7e12f1] (00/23) No match (V2 was not tested)
12 [7426b428] (00/23) No match (V2 was not tested)
13 [9417fc12] (00/23) No match (V2 was not tested)
14 [13bc5b2d] (00/23) No match (V2 was not tested)
15 [04530ec0] (00/22) No match (V2 was not tested)

Track Peak [ CRC32 ] [W/O NULL] [ LOG ]
– 100,0 [C6FB06A2] [1EC500DF] CRC32
01 100,0 [911DEDCF] [C069D918]
02 98,8 [F3DC1CE9] [A6AD545B]
03 98,9 [0E7557C7] [07936BDD]
04 93,2 [285E32F5] [B193052F]
05 93,7 [7B9E9010] [9B70DEA3]
06 91,1 [F5B2B008] [1058251C]
07 98,8 [D0DF3B45] [4EDA30B6]
08 98,8 [C7E2E345] [87953D4F]
09 98,9 [20FE2E83] [2336C12F]
10 98,8 [080B7022] [88740319]
11 93,2 [B883FC65] [B5AA2173]
12 98,8 [136FE702] [179A113B]
13 98,8 [68354B51] [D28EC986]
14 98,8 [C6B322AD] [511FE939]
15 98,8 [5895187E] [0D59382A]


Nicki Parrott: Collection (2011-2017) Re-up

Tracklist CD5 - 2015 - Sentimental Journey:
Venus Records, VHCO-1178, Japan

01. It's Magic [0:04:49.12]
02. Again [0:04:53.15]
03. Just One Of Those Things [0:04:36.63]
04. Fools Rush In [0:04:35.30]
05. If I Give My Heart To You [0:03:42.49]
06. I'll See You In My Dreams [0:04:11.28]
07. Que Sera, Sera [0:02:58.29]
08. That Old Feeling [0:04:54.30]
09. My One And Only Love [0:04:24.37]
10. Blue Skies [0:03:42.48]
11. Quizas, Quizas, Quizas [0:03:37.34]
12. Secret Love [0:04:25.72]
13. Sentimental Journey [0:04:40.45]
14. Dream A Little Dream [0:03:36.58]

Exact Audio Copy V1.1 from 23. June 2015

Отчёт EAC об извлечении, выполненном 5. ноября 2015, 23:19

Nicki Parrott / Sentimental Journey

Дисковод: ATAPI iHAS122 C Adapter: 1 ID: 1

Режим чтения : Достоверность
Использование точного потока : Да
Отключение кэша аудио : Да
Использование указателей C2 : Нет

Коррекция смещения при чтении : 6
Способность читать области Lead-in и Lead-out : Нет
Заполнение пропущенных сэмплов тишиной : Да
Удаление блоков с тишиной в начале и конце : Нет
При вычислениях CRC использовались нулевые сэмплы : Да
Интерфейс : Встроенный Win32-интерфейс для Win NT/2000

Выходной формат : Пользовательский кодировщик
Выбранный битрейт : 768 kBit/s
Качество : Высокий
Добавление ID3-тега : Нет
Утилита сжатия : C:\Program Files\Exact Audio Copy\FLAC\FLAC.EXE
Дополнительные параметры : -6 -V -T "ARTIST=%artist%" -T "TITLE=%title%" -T "ALBUM=%albumtitle%" -T "DATE=%year%" -T "TRACKNUMBER=%tracknr%" -T "GENRE=%genre%" -T "COMMENT=%comment%" -T "BAND=%albuminterpret%" -T "ALBUMARTIST=%albuminterpret%" -T "COMPOSER=%composer%" %haslyrics%–tag-from-file=LYRICS="%lyricsfile%"%haslyrics% -T "DISCNUMBER=%cdnumber%" -T "TOTALDISCS=%totalcds%" -T "TOTALTRACKS=%numtracks%" %hascover%–picture="%coverfile%"%hascover% %source% -o %dest%


TOC извлечённого CD

Трек | Старт | Длительность | Начальный сектор | Конечный сектор
––––––––––––––––––––––––––––––––––-
1 | 0:00.00 | 4:49.12 | 0 | 21686
2 | 4:49.12 | 4:53.15 | 21687 | 43676
3 | 9:42.27 | 4:36.63 | 43677 | 64439
4 | 14:19.15 | 4:35.30 | 64440 | 85094
5 | 18:54.45 | 3:42.49 | 85095 | 101793
6 | 22:37.19 | 4:11.28 | 101794 | 120646
7 | 26:48.47 | 2:58.29 | 120647 | 134025
8 | 29:47.01 | 4:54.30 | 134026 | 156105
9 | 34:41.31 | 4:24.37 | 156106 | 175942
10 | 39:05.68 | 3:42.48 | 175943 | 192640
11 | 42:48.41 | 3:37.34 | 192641 | 208949
12 | 46:26.00 | 4:25.72 | 208950 | 228896
13 | 50:51.72 | 4:40.45 | 228897 | 249941
14 | 55:32.42 | 3:36.58 | 249942 | 266199


Характеристики диапазона извлечения и сообщения об ошибках

Выбранный диапазон

Имя файла D:\UPLOADS-3\Nicki Parrott - Sentimental Journey - 2015 - 59'11''\Nicki Parrott - Sentimental Journey.wav

Пиковый уровень 100.0 %
Скорость извлечения 3.4 X
Качество диапазона 100.0 %
CRC теста C77C6092
CRC копии C77C6092
Копирование… OK

Ошибок не произошло

Конец отчёта

–– CUETools DB Plugin V2.1.6

[CTDB TOCID: o1mB9i0KlrsxqPcc6pSo0ADsaFc-] found
Submit result: o1mB9i0KlrsxqPcc6pSo0ADsaFc- has been confirmed
Track | CTDB Status
1 | (8/8) Accurately ripped
2 | (8/8) Accurately ripped
3 | (8/8) Accurately ripped
4 | (8/8) Accurately ripped
5 | (8/8) Accurately ripped
6 | (8/8) Accurately ripped
7 | (8/8) Accurately ripped
8 | (8/8) Accurately ripped
9 | (8/8) Accurately ripped
10 | (8/8) Accurately ripped
11 | (8/8) Accurately ripped
12 | (8/8) Accurately ripped
13 | (8/8) Accurately ripped
14 | (8/8) Accurately ripped


==== Контрольная сумма отчёта 3C0C4B4679EB2C5653F58B1B5BE8B19C5330D6BEA0D0BB4073E237E69245C259 ====


[CUETools log; Date: 17.02.2018 10:57:12; Version: 2.1.5]
[CTDB TOCID: o1mB9i0KlrsxqPcc6pSo0ADsaFc-] found.
Track | CTDB Status
1 | (58/58) Accurately ripped
2 | (58/58) Accurately ripped
3 | (58/58) Accurately ripped
4 | (58/58) Accurately ripped
5 | (57/58) Accurately ripped
6 | (58/58) Accurately ripped
7 | (58/58) Accurately ripped
8 | (58/58) Accurately ripped
9 | (58/58) Accurately ripped
10 | (58/58) Accurately ripped
11 | (58/58) Accurately ripped
12 | (58/58) Accurately ripped
13 | (58/58) Accurately ripped
14 | (58/58) Accurately ripped
[AccurateRip ID: 001f47fd-014a4232-c80ddd0e] found.
Track [ CRC | V2 ] Status
01 [413ad1de|6aac70c9] (00+00/16) No match
02 [50667328|54845f51] (00+00/16) No match
03 [3eb51cfa|08cb81cc] (00+00/16) No match
04 [7fc6456e|0eb9ab3b] (00+00/16) No match
05 [3c9f8f87|fef0bd6e] (00+00/16) No match
06 [4d3554b6|2a62a96f] (00+00/16) No match
07 [43c0563c|a15ffd3b] (00+00/16) No match
08 [a5f1b27a|c8474d0a] (00+00/16) No match
09 [063b51b1|31ab7c38] (00+00/16) No match
10 [279b333e|c60d3042] (00+00/16) No match
11 [89be4e7e|83eeb266] (00+00/16) No match
12 [2c0012d2|f9588fed] (00+00/16) No match
13 [b860e584|c73aae68] (00+00/16) No match
14 [3b98a004|fc35f814] (00+00/16) No match
Offsetted by 6:
01 [a6aee842] (00/16) No match (V2 was not tested)
02 [e22e1e62] (00/16) No match (V2 was not tested)
03 [d94f14f6] (00/16) No match (V2 was not tested)
04 [652e90ce] (00/16) No match (V2 was not tested)
05 [d105e8cf] (00/16) No match (V2 was not tested)
06 [d5c633dc] (00/16) No match (V2 was not tested)
07 [f63c4bea] (00/16) No match (V2 was not tested)
08 [876dccb0] (00/16) No match (V2 was not tested)
09 [2c454825] (00/16) No match (V2 was not tested)
10 [54790580] (00/16) No match (V2 was not tested)
11 [85b5e6fa] (00/16) No match (V2 was not tested)
12 [ce6799dc] (00/16) No match (V2 was not tested)
13 [dd50d79e] (00/16) No match (V2 was not tested)
14 [0b715896] (00/16) No match (V2 was not tested)

Track Peak [ CRC32 ] [W/O NULL] [ LOG ]
– 100,0 [C77C6092] [E87C756B] CRC32
01 99,7 [0EF5AFE8] [DF5B4DC7]
02 98,9 [B8B86B4E] [C110158B]
03 100,0 [3BD77988] [96F1B080]
04 99,2 [FD0760B0] [99BC3281]
05 99,0 [2EEA2870] [FC186952]
06 100,0 [EDC8B2B4] [DC155E0A]
07 100,0 [A98B95C5] [984E62D6]
08 99,8 [8CDE1217] [D328E12C]
09 96,8 [BF2B8EE3] [90D76C4E]
10 100,0 [D0310B44] [854F2E27]
11 99,1 [6F574E6B] [B406CE9E]
12 99,0 [956AB9B3] [D54F5104]
13 100,0 [4CF71839] [123E1422]
14 98,8 [C4EED168] [3EC169C9]


Nicki Parrott: Collection (2011-2017) Re-up

Tracklist CD6 - 2017 - Close To You - Burt Bacharach Song Book:
Venus Records, VHCO-1222, Russia

01. Walk On By 3:09
02. Alfie 4:41
03. Close To You 3:17
04. Raindrops Keep Fallin' On My Head 3:03
05. Wishin' And Hopin' 2:59
06. A House Is Not A Home 5:17
07. You'll Never Get To Heaven 3:03
08. Wives And Lovers 3:10
09. The April Fools 3:32
10. There's Always Something there to remind me 2:26
11. Make It Easy On Yourself 4:00
12. Do You Know The Way To San Jose 3:49
13. This Girls In Love You 3:28
14. I Say A Little Prayer 3:30
15. What The World Needs Now Is Love 3:46

Exact Audio Copy V1.3 from 2. September 2016

Отчёт EAC об извлечении, выполненном 13. февраля 2018, 15:15

Nicki Parrott / Close To You

Дисковод: ASUS DRW-24B3ST Adapter: 1 ID: 0

Режим чтения : Достоверность
Использование точного потока : Да
Отключение кэша аудио : Да
Использование указателей C2 : Нет

Коррекция смещения при чтении : 6
Способность читать области Lead-in и Lead-out : Нет
Заполнение пропущенных сэмплов тишиной : Да
Удаление блоков с тишиной в начале и конце : Нет
При вычислениях CRC использовались нулевые сэмплы : Да
Интерфейс : Встроенный Win32-интерфейс для Win NT/2000

Выходной формат : Пользовательский кодировщик
Выбранный битрейт : 1024 kBit/s
Качество : Высокий
Добавление ID3-тега : Нет
Утилита сжатия : C:\Program Files (x86)\Exact Audio Copy\Flac\flac-1.3.2-win\win64\flac.exe
Дополнительные параметры : -V -8 -T "Date=%year%" -T "Genre=%genre%" %source%


TOC извлечённого CD

Трек | Старт | Длительность | Начальный сектор | Конечный сектор
––––––––––––––––––––––––––––––––––-
1 | 0:00.00 | 3:11.34 | 0 | 14358
2 | 3:11.34 | 4:43.29 | 14359 | 35612
3 | 7:54.63 | 3:19.55 | 35613 | 50592
4 | 11:14.43 | 3:05.42 | 50593 | 64509
5 | 14:20.10 | 3:01.15 | 64510 | 78099
6 | 17:21.25 | 5:12.62 | 78100 | 101561
7 | 22:34.12 | 3:10.40 | 101562 | 115851
8 | 25:44.52 | 3:12.48 | 115852 | 130299
9 | 28:57.25 | 3:34.20 | 130300 | 146369
10 | 32:31.45 | 2:30.04 | 146370 | 157623
11 | 35:01.49 | 4:02.25 | 157624 | 175798
12 | 39:03.74 | 3:51.30 | 175799 | 193153
13 | 42:55.29 | 3:30.70 | 193154 | 208973
14 | 46:26.24 | 3:32.35 | 208974 | 224908
15 | 49:58.59 | 3:46.20 | 224909 | 241878


Характеристики диапазона извлечения и сообщения об ошибках

Выбранный диапазон

Имя файла E:\Torrents\Nicki Parrott - 2017 - Close To You\Nicki Parrott - Close To You.wav

Пиковый уровень 98.1 %
Скорость извлечения 8.9 X
Качество диапазона 99.9 %
CRC теста 70A7B971
CRC копии 70A7B971
Копирование… OK

Ошибок не произошло


AccurateRip: сводка

Трек 1 точность не определена (достоверность 2) [DB57A044], AccurateRip вернул [5DF98CFD] (AR v2)
Трек 2 точность не определена (достоверность 2) [E3CA3C7B], AccurateRip вернул [BF810173] (AR v2)
Трек 3 точность не определена (достоверность 2) [75101572], AccurateRip вернул [4EA2B8EA] (AR v2)
Трек 4 точность не определена (достоверность 2) [4B5A2D55], AccurateRip вернул [49634389] (AR v2)
Трек 5 точность не определена (достоверность 2) [6FD0EB4C], AccurateRip вернул [12690C68] (AR v2)
Трек 6 точность не определена (достоверность 2) [C1729EA5], AccurateRip вернул [67420A5E] (AR v2)
Трек 7 точность не определена (достоверность 2) [F0474478], AccurateRip вернул [BEC64BF6] (AR v2)
Трек 8 точность не определена (достоверность 2) [5D58150E], AccurateRip вернул [A460AB94] (AR v2)
Трек 9 точность не определена (достоверность 2) [8069E3A9], AccurateRip вернул [8C6D18CB] (AR v2)
Трек 10 точность не определена (достоверность 2) [2BF5C8E0], AccurateRip вернул [21C7624D] (AR v2)
Трек 11 точность не определена (достоверность 2) [5721CBDB], AccurateRip вернул [68A7296B] (AR v2)
Трек 12 точность не определена (достоверность 2) [355DB877], AccurateRip вернул [A429A2C8] (AR v2)
Трек 13 точность не определена (достоверность 2) [18EA38EB], AccurateRip вернул [EBB32F23] (AR v2)
Трек 14 точность не определена (достоверность 2) [2EEA741A], AccurateRip вернул [E4C2FC95] (AR v2)
Трек 15 точность не определена (достоверность 2) [2103722B], AccurateRip вернул [536BD2A6] (AR v2)

Ни один трек не прошёл проверки на точность
В вашей базе может быть иной вариант штамповки диска

Конец отчёта

==== Контрольная сумма отчёта B585AD0346AA6F11904550C8E7F2AC59074CADF984375EB75A115646B18F7349 ====


[CUETools log; Date: 17.02.2018 10:57:44; Version: 2.1.5]
[CTDB TOCID: F9iLkMJY3htPideELpdV5zOas_E-] found.
Track | CTDB Status
1 | (21/21) Accurately ripped
2 | (21/21) Accurately ripped
3 | (21/21) Accurately ripped
4 | (21/21) Accurately ripped
5 | (21/21) Accurately ripped
6 | (21/21) Accurately ripped
7 | (21/21) Accurately ripped
8 | (21/21) Accurately ripped
9 | (21/21) Accurately ripped
10 | (21/21) Accurately ripped
11 | (21/21) Accurately ripped
12 | (21/21) Accurately ripped
13 | (21/21) Accurately ripped
14 | (21/21) Accurately ripped
15 | (21/21) Accurately ripped
[AccurateRip ID: 001d988e-014e946b-d50c990f] found.
Track [ CRC | V2 ] Status
01 [d1336e4f|db57a044] (0+0/2) No match
02 [31ec5d22|e3ca3c7b] (0+0/2) No match
03 [ce988ecd|75101572] (0+0/2) No match
04 [320c84fa|4b5a2d55] (0+0/2) No match
05 [6beee288|6fd0eb4c] (0+0/2) No match
06 [d809b93d|c1729ea5] (0+0/2) No match
07 [829a8173|f0474478] (0+0/2) No match
08 [92f25f35|5d58150e] (0+0/2) No match
09 [780d1adb|8069e3a9] (0+0/2) No match
10 [25e99019|2bf5c8e0] (0+0/2) No match
11 [a88988e7|5721cbdb] (0+0/2) No match
12 [c33b1e07|355db877] (0+0/2) No match
13 [26d808e6|18ea38eb] (0+0/2) No match
14 [afa852dd|2eea741a] (0+0/2) No match
15 [3f6681a9|2103722b] (0+0/2) No match
Offsetted by 48:
01 [5fd4bcdf] (0/2) No match (V2 was not tested)
02 [1f63c5d2] (0/2) No match (V2 was not tested)
03 [b4b2c48d] (0/2) No match (V2 was not tested)
04 [3ba43daa] (0/2) No match (V2 was not tested)
05 [19db5588] (0/2) No match (V2 was not tested)
06 [9187f84d] (0/2) No match (V2 was not tested)
07 [5d14e043] (0/2) No match (V2 was not tested)
08 [e61897b5] (0/2) No match (V2 was not tested)
09 [9173a8ab] (0/2) No match (V2 was not tested)
10 [251e1899] (0/2) No match (V2 was not tested)
11 [c9505907] (0/2) No match (V2 was not tested)
12 [4092feb7] (0/2) No match (V2 was not tested)
13 [06d9e886] (0/2) No match (V2 was not tested)
14 [72bda6ad] (0/2) No match (V2 was not tested)
15 [6a23ec1e] (0/2) No match (V2 was not tested)

Track Peak [ CRC32 ] [W/O NULL] [ LOG ]
– 98,1 [70A7B971] [2F4DEBA9] CRC32
01 96,2 [627DCB45] [4994A4F0]
02 95,4 [9D9C52C6] [792F9B9C]
03 96,6 [63615976] [CB021722]
04 95,6 [2B07901D] [3E3D21E4]
05 97,1 [5FEBE383] [8027067C]
06 98,1 [F752F331] [A7BFE4F3]
07 95,2 [765E3709] [A1E21410]
08 95,5 [CE5FA6FD] [7335A7E4]
09 95,2 [1258C28C] [C532FAA7]
10 97,4 [3056F548] [4DCE7470]
11 95,5 [481F2130] [E8A050B3]
12 96,8 [695A4592] [E6BE8147]
13 95,2 [DA95F97C] [F8A25535]
14 96,0 [71FA5064] [D036FCFD]
15 95,9 [17D2E460] [46FB4A6F]


All thanks go to the original releasers

Nicki Parrott in my Blog

Download Nicki Parrott: Collection (2011-2017):