Tags
Language
Tags
January 2023
Su Mo Tu We Th Fr Sa
1 2 3 4 5 6 7
8 9 10 11 12 13 14
15 16 17 18 19 20 21
22 23 24 25 26 27 28
29 30 31 1 2 3 4

Nicola Benedetti - Tchaikovsky, Bruch: Violin Concertos (2010)

Posted By: tirexiss
Nicola Benedetti - Tchaikovsky, Bruch: Violin Concertos (2010)

Nicola Benedetti - Tchaikovsky, Bruch: Violin Concertos (2010)
EAC | FLAC (image+.cue, log) | Covers Included | 01:00:24 | 281 MB
Genre: Classical | Label: Deutsche Grammophon | Catalog: 4764092

In her previous recordings for Deutsche Grammophon, Nicola Benedetti displayed a varied repertoire that ranged from works by Vaughan Williams and Tavener to MacMillan and Szymanowski, which are not exactly eccentric choices but somewhat outside the usual programming for young virtuoso violinists. Yet the time has come for Benedetti to take on the blockbusters of her profession, and the violin concertos by Pyotr Il'yich Tchaikovsky and Max Bruch on this 2011 release are central to the genre. Supported by the Czech Philharmonic Orchestra, under the direction of Jakub Hrusa, Benedetti plays with flexibility and a sweet expression that is slightly introspective and poignant in the lyrical passages, but assured and outgoing in the flashy sections. There is no question that she has grown into these challenging pieces and has both the emotional maturity and technical acumen to bring them off. But they still feel like youthful performances, fresh in spirit and bright in sound, so they will appeal to an audience that prizes those qualities over an older violinist's more seasoned approach. Even so, in the Bruch, Benedetti evokes enough of that concerto's autumnal feeling in her darker tone to balance her effervescence in the Tchaikovsky. Deutsche Grammophon's reproduction is exceptional, giving Benedetti a natural placement in media res, while bringing out all the details in the orchestral accompaniment.

Nicola Benedetti - Tchaikovsky, Bruch: Violin Concertos (2010)

Track List:

Pyotr Il'yich Tchaikovsky (1840-1893)

Violin Concerto in D major, Op. 35
1. I. Allegro Moderato 18:53
2. II. Canzonetta: Andante 06:31
3. III. Finale: Allegaro Vivacissimo 10:10

Max Bruch (1838-1920)

Violin Concerto No. 1 in G minor, Op. 26
4. I.Vorspiel: Allegro Moderato 08:27
5. II. Adagio 09:01
6. III. Finale: Allegro energico 07:08

Performers:
Nicola Benedetti - Violin
Czech Philharmonic Orchestra
Jakub Hrusa - Conductor

Exact Audio Copy V0.99 prebeta 5 from 4. May 2009

Отчёт EAC об извлечении, выполненном 1. августа 2011, 14:44

Nicola Benedetti / Tchaikovsky . Bruch Violin Concertos

Дисковод: _NEC DVD_RW ND-4571A Adapter: 0 ID: 0

Режим чтения : Достоверность
Использование точного потока : Да
Отключение кэша аудио : Да
Использование указателей C2 : Нет

Коррекция смещения при чтении : 48
Способность читать области Lead-in и Lead-out : Нет
Заполнение пропущенных сэмплов тишиной : Да
Удаление блоков с тишиной в начале и конце : Нет
При вычислениях CRC использовались нулевые сэмплы : Да
Интерфейс : Встроенный Win32-интерфейс для Win NT/2000

Выходной формат : Пользовательский кодировщик
Выбранный битрейт : 768 kBit/s
Качество : Высокий
Добавление ID3-тэга : Нет
Утилита сжатия : C:\Program Files\Exact Audio Copy\Flac\flac.exe
Дополнительные параметры : -6 -V -T "ARTIST=%a" -T "TITLE=%t" -T "ALBUM=%g" -T "DATE=%y" -T "TRACKNUMBER=%n" -T "GENRE=%m" -T "COMMENT=%e" %s -o %d


TOC извлечённого CD

Трек | Старт | Длительность | Начальный сектор | Конечный сектор
––––––––––––––––––––––––––––––––––-
1 | 0:00.00 | 18:53.56 | 0 | 85030
2 | 18:53.56 | 6:31.64 | 85031 | 114419
3 | 25:25.45 | 10:21.11 | 114420 | 161005
4 | 35:46.56 | 8:27.61 | 161006 | 199091
5 | 44:14.42 | 9:01.48 | 199092 | 239714
6 | 53:16.15 | 7:08.60 | 239715 | 271874


Характеристики диапазона извлечения и сообщения об ошибках

Выбранный диапазон

Имя файла C:\EAC\N.Benedetti - Tchaikovsky Bruch - Violin Concertos\N.Benedetti - Tchaikovsky Bruch - Violin Concertos.wav

Пиковый уровень 96.3 %
Качество диапазона 100.0 %
CRC копии FA94D666
Копирование… OK

Ошибок не произошло


AccurateRip: сводка

Трек 1 точное извлечение (доверие 2) [B7876C5C]
Трек 2 точное извлечение (доверие 2) [BD9AE21D]
Трек 3 точное извлечение (доверие 2) [C348362D]
Трек 4 точное извлечение (доверие 2) [7E8A68F4]
Трек 5 точное извлечение (доверие 2) [CBF67DF3]
Трек 6 точное извлечение (доверие 2) [10BFD27F]

Все треки извлечены точно

Конец отчёта

Thanks to the Original ripper (unknown)!

Download: