Tags
Language
Tags

Night Ranger - Man In Motion (1988) [Geffen UICY-25159, Japan]

Posted By: v3122
Night Ranger - Man In Motion (1988) [Geffen UICY-25159, Japan]

Night Ranger - Man In Motion (1988)
EAC | Flac(Image) + Cue + Log & MP3 CBR 320Kbps
2012 | Geffen, UICY-25159 | ~ 372 or 118 Mb | Scans(jpg) -> 34 Mb
Melodic Hard Rock / AOR | Remastered

Man in Motion is the fifth studio album released in 1988 by the hard rock/arena rock band Night Ranger. Original Night Ranger keyboardist Alan Fitzgerald had left the band prior to recording sessions for the album, and new keyboardist Jesse Bradman is featured as his replacement. This effort would be the last studio album released by the band until the mid-1990s…

~ amazon
Night Ranger - Man In Motion (1988) [Geffen UICY-25159, Japan]


Night Ranger - Man In Motion (1988):

Night Ranger - Man In Motion (1988) [Geffen UICY-25159, Japan]

Tracklist:

1. Man In Motion
2. Reason To Be
3. Don't Start Thinking (I'm Alone Tonight)
4. Love Shot Me Down
5. Restless Kind
6. Halfway To The Sun
7. Here She Comes Again
8. Right On You
9. Kiss Me Where It Hurts
10. I Did It For Love
11. Woman In Love

Exact Audio Copy V1.1 from 23. June 2015

EAC extraction logfile from 29. January 2017, 16:48

Night Ranger / Man In Motion

Used drive : ASUS DRW-24B1ST Adapter: 1 ID: 1

Read mode : Secure
Utilize accurate stream : Yes
Defeat audio cache : Yes
Make use of C2 pointers : No

Read offset correction : 6
Overread into Lead-In and Lead-Out : No
Fill up missing offset samples with silence : Yes
Delete leading and trailing silent blocks : No
Null samples used in CRC calculations : Yes
Used interface : Native Win32 interface for Win NT & 2000

Used output format : User Defined Encoder
Selected bitrate : 1024 kBit/s
Quality : High
Add ID3 tag : No
Command line compressor : C:\Program Files (x86)\Exact Audio Copy\Flac\flac.exe
Additional command line options : -V -8 -T "Date=%year%" -T "Genre=%genre%" %source%


TOC of the extracted CD

Track | Start | Length | Start sector | End sector
––––––––––––––––––––––––––––-
1 | 0:00.00 | 4:26.20 | 0 | 19969
2 | 4:26.20 | 4:11.25 | 19970 | 38819
3 | 8:37.45 | 4:43.36 | 38820 | 60080
4 | 13:21.06 | 4:06.16 | 60081 | 78546
5 | 17:27.22 | 4:41.15 | 78547 | 99636
6 | 22:08.37 | 5:19.09 | 99637 | 123570
7 | 27:27.46 | 4:21.47 | 123571 | 143192
8 | 31:49.18 | 4:13.63 | 143193 | 162230
9 | 36:03.06 | 4:34.41 | 162231 | 182821
10 | 40:37.47 | 4:49.03 | 182822 | 204499
11 | 45:26.50 | 4:41.13 | 204500 | 225587


Range status and errors

Selected range

Filename E:\Torrent\# MY\# Подготовка раздач\Night Ranger - Discography\1988 - Man In Motion (2012 SHM-CD) (Geffen Records, UICY-25159, Japan)\Night Ranger - Man In Motion.wav

Peak level 99.9 %
Extraction speed 5.4 X
Range quality 100.0 %
Test CRC 3635C23A
Copy CRC 3635C23A
Copy OK

No errors occurred


AccurateRip summary

Track 1 accurately ripped (confidence 7) [ECBB77F1] (AR v2)
Track 2 accurately ripped (confidence 7) [1F650004] (AR v2)
Track 3 accurately ripped (confidence 7) [E478AE25] (AR v2)
Track 4 accurately ripped (confidence 7) [6EE5EBA0] (AR v2)
Track 5 accurately ripped (confidence 7) [3F259A75] (AR v2)
Track 6 accurately ripped (confidence 7) [EBDCB584] (AR v2)
Track 7 accurately ripped (confidence 6) [54089CC9] (AR v2)
Track 8 accurately ripped (confidence 6) [C01EDDF6] (AR v2)
Track 9 accurately ripped (confidence 7) [FA2EDF1C] (AR v2)
Track 10 accurately ripped (confidence 7) [58F7A4B2] (AR v2)
Track 11 accurately ripped (confidence 6) [64045F77] (AR v2)

All tracks accurately ripped

End of status report

–– CUETools DB Plugin V2.1.6

[CTDB TOCID: VXFMokU6lBsAed8tkaO_sUEhkyg-] found
Submit result: VXFMokU6lBsAed8tkaO_sUEhkyg- has been confirmed
Track | CTDB Status
1 | (8/8) Accurately ripped
2 | (8/8) Accurately ripped
3 | (8/8) Accurately ripped
4 | (8/8) Accurately ripped
5 | (8/8) Accurately ripped
6 | (8/8) Accurately ripped
7 | (8/8) Accurately ripped
8 | (8/8) Accurately ripped
9 | (8/8) Accurately ripped
10 | (8/8) Accurately ripped
11 | (8/8) Accurately ripped


==== Log checksum 081AA95B15BA225F96D8205D21B33DBF4398FCED19D212C777554C2AFEEAD307 ====

foobar2000 1.2.9 / Dynamic Range Meter 1.1.1
log date: 2017-03-06 14:55:02

––––––––––––––––––––––––––––––––––––––––
Analyzed: Night Ranger / Man In Motion
––––––––––––––––––––––––––––––––––––––––

DR Peak RMS Duration Track
––––––––––––––––––––––––––––––––––––––––
DR7 -0.03 dB -8.38 dB 4:26 01-Man In Motion
DR6 -0.10 dB -9.17 dB 4:11 02-Reason To Be
DR7 -0.01 dB -9.00 dB 4:43 03-Don't Start Thinking (I'm Alone Tonight)
DR9 -0.10 dB -9.94 dB 4:06 04-Love Shot Me Down
DR8 0.00 dB -9.83 dB 4:41 05-Restless Kind
DR7 -0.10 dB -8.33 dB 5:19 06-Halfway To The Sun
DR8 -0.10 dB -9.40 dB 4:22 07-Here She Comes Again
DR7 -0.10 dB -8.34 dB 4:14 08-Right On You
DR8 -0.10 dB -8.92 dB 4:35 09-Kiss Me Where It Hurts
DR9 -0.10 dB -10.43 dB 4:49 10-I Did It For Love
DR8 -0.10 dB -9.99 dB 4:41 11-Woman In Love
––––––––––––––––––––––––––––––––––––––––

Number of tracks: 11
Official DR value: DR8

Samplerate: 44100 Hz
Channels: 2
Bits per sample: 16
Bitrate: 1006 kbps
Codec: FLAC

[CUETools log; Date: 06.03.2017 14:52:04; Version: 2.1.4]
[CTDB TOCID: VXFMokU6lBsAed8tkaO_sUEhkyg-] found.
Track | CTDB Status
1 | (9/9) Accurately ripped
2 | (9/9) Accurately ripped
3 | (9/9) Accurately ripped
4 | (9/9) Accurately ripped
5 | (9/9) Accurately ripped
6 | (9/9) Accurately ripped
7 | (9/9) Accurately ripped
8 | (9/9) Accurately ripped
9 | (9/9) Accurately ripped
10 | (9/9) Accurately ripped
11 | (9/9) Accurately ripped
[AccurateRip ID: 00146e50-00b1a736-940bbf0b] found.
Track [ CRC | V2 ] Status
01 [3e003de9|ecbb77f1] (0+7/9) Accurately ripped
02 [c4b8a264|1f650004] (0+7/9) Accurately ripped
03 [b3a801b5|e478ae25] (0+7/9) Accurately ripped
04 [f7146f83|6ee5eba0] (0+7/9) Accurately ripped
05 [edaa3de3|3f259a75] (0+7/9) Accurately ripped
06 [412176fa|ebdcb584] (0+7/9) Accurately ripped
07 [14b0b5ed|54089cc9] (0+6/8) Accurately ripped
08 [2a65ccd1|c01eddf6] (0+6/8) Accurately ripped
09 [326ac9c1|fa2edf1c] (0+7/9) Accurately ripped
10 [9099c90e|58f7a4b2] (0+7/9) Accurately ripped
11 [4a26fde4|64045f77] (0+6/8) Accurately ripped
Offsetted by -688:
01 [ff2429a9] (0/9) No match (V2 was not tested)
02 [dc520674] (0/9) No match (V2 was not tested)
03 [e2630875] (0/9) No match (V2 was not tested)
04 [98e39a53] (0/9) No match (V2 was not tested)
05 [bf91b193] (0/9) No match (V2 was not tested)
06 [1860812a] (0/9) No match (V2 was not tested)
07 [d8e8eabd] (0/8) No match (V2 was not tested)
08 [4bf75cf1] (0/8) No match (V2 was not tested)
09 [63c1fc21] (0/9) No match (V2 was not tested)
10 [9e111d9e] (0/9) No match (V2 was not tested)
11 [3ee913e4] (0/8) No match (V2 was not tested)
Offsetted by -676:
01 [ee608f39] (0/9) No match (V2 was not tested)
02 [10007750] (0/9) No match (V2 was not tested)
03 [7dd9d145] (0/9) No match (V2 was not tested)
04 [784ca3ff] (0/9) No match (V2 was not tested)
05 [e4181347] (0/9) No match (V2 was not tested)
06 [82c3203e] (0/9) No match (V2 was not tested)
07 [9b70dde9] (0/8) No match (V2 was not tested)
08 [6c1ffca9] (0/8) No match (V2 was not tested)
09 [158076c9] (0/9) No match (V2 was not tested)
10 [8ef2c15a] (0/9) No match (V2 was not tested)
11 [b62d2264] (0/8) No match (V2 was not tested)

Track Peak [ CRC32 ] [W/O NULL] [ LOG ]
– 99,9 [3635C23A] [2ACDF25E] CRC32
01 99,6 [69DBC604] [2D0C85AD]
02 98,8 [401D1467] [844101D3]
03 99,9 [AB472E07] [1EB1B056]
04 98,8 [B6FBBF09] [3C4CD0B4]
05 99,9 [53E9DA29] [3ABCC2FE]
06 98,8 [29C4207B] [1DE7E0D3]
07 98,8 [2268ECD4] [42751766]
08 98,8 [BBC0C360] [EE7BAAF2]
09 98,8 [A72B94C8] [19052A68]
10 98,8 [4D7406A6] [DBA05917]
11 98,8 [6443198D] [5FFFC79B]

Night Ranger - Man In Motion (1988) [Geffen UICY-25159, Japan]

All thanks go to Ginger Devil

Night Ranger in my Blog

Download Night Ranger - Man In Motion (1988):