Tags
Language
Tags

Nikolaus Harnoncourt, Concentus Musicus Wien, Arnold Schoenberg Chor - Bach: Weihnachtsoratorium (2008)

Posted By: ArlegZ
Nikolaus Harnoncourt, Concentus Musicus Wien, Arnold Schoenberg Chor - Bach: Weihnachtsoratorium (2008)

Nikolaus Harnoncourt, Concentus Musicus Wien & Arnold Schoenberg Chor - Bach: Weihnachtsoratorium (2008)
EAC | FLAC | Image (Cue & Log) ~ 735 Mb | Total time: 77:08+72:01 | Scans included
Classical | Label: Deutsche Harmonia Mundi | # 7333212 | Recorded: 2006-07

Christine Schäfer models the notes in a sovereign and refreshingly light manner: Werner Güra not only convinces as an evangelist, but also proves his class in the arias." The two bassists intone a hearty-bawdy, sometimes very soft and gentle tone There is nothing wrong with Harnoncourt's portrayal of the opening movement of the Third Cantata, where the music explodes in a way that has not been heard before.
–Stereo

Performer:
Christine Schäfer, soprano
Bernarda Fink, alto
Werner Güra, tenor
Gerald Finley & Christian Gerhaher, bass
Arnold Schoenberg Chor
Concentus Musicus Wien
Nikolaus Harnoncourt, conductor

Track List:
CD1:
Kantate Nr. 1
01. Chorus: Jauchzet, frohlocket
02. Evangelista: Es begab sich aber zu der Zeit
03. Recitativo (Alt): Nun wird mein liebster Bräutigam
04. Aria (Alt): Bereite dich, Zion
05. Choral: Wie soll ich dich empfangen
06. Evangelista: Und sie gebar ihren ersten Sohn
07. Choral: Er ist auf Erden kommen arm
08. Aria (Bass): Großer Herr, o starker König
09. Choral: Ach mein herzliebes Jesulein
Kantate Nr. 2
10. Sinfonia
11. Evangelista: Und es waren Hirten
12. Choral: Brich an, du schönes Morgenlicht
13. Evangelista: Und der Engel sprach zu ihnen
14. Rezitativ (Tenor): Was Gott dem Abraham verheißen
15. Aria (Tenor): Frohe Hirten, eilt, ach eilet
16. Evangelista: Und das habt zum Zeichen
17. Choral: Schaut hin, da liegt im finstren Stall
18. Rezitativ (Bass): So geht denn hin, ihr Hirten
19. Aria (Alt): Schlafe, mein Liebster
20. Evangelista: Und alsobald war da bei dem Engel
21. Choral: Ehre sei Gott
22. Rezitativ (Bass): So recht, ihr Engel
23. Choral: Wir singen dir in deinem Heer
Kantate Nr. 3
24. Chorus: Herrscher des Himmels, erhöre das Lallen
25. Evangelista: Und da die Engel
26. Chorus: Lasset uns nun gehen
27. Rezitativ: (Bass): Er hat sein Volk getröst'
28. Choral: Dies hat er alles uns getan
29. Aria Duetto (Sopran, Bass): Herr, dein Mitleid
30. Evangelista: Und sie kamen eilend
31. Aria (Alt): Schließe, mein Herze
32. Rezitativ (Alt): Ja, ja, mein Herz soll es bewahren
33. Choral: Ich will dich mit Fleiß bewahren
34. Evangelista: Und die Hirten kehrten wieder um
35. Choral: Seid froh dieweil
24. Chorus (da capo 1): Herrscher des Himmels
CD2:
Kantate Nr. 4
01. Chorus: Fallt mit Danken
02. Evangelista: Und da acht Tage um waren
03. Rezitativ mit Choral: Immanuel, o süßes Wort!
04. Aria (Sopran): Flößt, mein Heiland
06. Rezitativ mit Choral: Wohlan, dein Name soll allein
06. Aria (Tenor): Ich will nur dir zu Ehren leben
07. Chorale: Jesus richte mein Beginnen
Kantate Nr. 5
08. Chor: Ehre sei dir, Gott, gesungen
09. Evangelista: Da Jesus geboren war zu Bethlehem
10. Chor: Wo ist der neugeborne König der Jüden
11. Choral: Dein Glanz all Finsternis verzehrt
12. Aria (Bass): Erleucht auch meine finstre Sinnen
13. Evangelista: Da das der König Herodes hörte
14. Rezitativ (Alt): Warum wollt ihr erschrecken?
15. Evangelista: Und ließ versammeln alle Hohepriester und Schriftgelehrten
16. Aria Terzetto (Sopran, Alt, Tenor): Ach, wenn wird die Zeit erscheinen
17. Rezitativ (Alt): Mein Liebster herrschet schon
18. Choral: Zwar ist solche Herzensstube
Kantate Nr. 6
19. Chor: Herr, wenn die stolzen Feinde schnauben
20. Evangelista: Da berief Herodes die Weisen heimlich
21. Rezitativ (Sopran): Du Falscher, suche nur den Herrn zu fällen
22. Aria (Sopran): Nur ein Wink von seinen Händen
23. Evangelista: Als sie nun den König gehöret hatten
24. Choral: Ich steh an deiner Krippen hier
25. Evangelista: Und Gott befahl ihnen im Traum
26. Rezitativ (Tenor): So geht! Genug, mein Schatz geht nicht von hier
27. Aria (Tenor): Nun mögt ihr stolzen Feinde schrecken
28. Rezitativ, Quartett: Was will der Höllen Schrecken nun
29. Choral: Nun seid ihr wohl gerochen


Exact Audio Copy V1.3 from 2. September 2016

EAC extraction logfile from 15. December 2018, 17:43

Christine Schafer, Bernarda Fink, Werner Gura, Gerald Finley, Christian Gerhaher; Nikolaus Harnoncourt / Bach - Weihnachtsoratorium (Christmas Oratorio) (Disc 1)

Used drive : ATAPI iHAS124 F Adapter: 1 ID: 0

Read mode : Secure
Utilize accurate stream : Yes
Defeat audio cache : Yes
Make use of C2 pointers : No

Read offset correction : 6
Overread into Lead-In and Lead-Out : No
Fill up missing offset samples with silence : Yes
Delete leading and trailing silent blocks : No
Null samples used in CRC calculations : Yes
Used interface : Native Win32 interface for Win NT & 2000

Used output format : User Defined Encoder
Selected bitrate : 1024 kBit/s
Quality : High
Add ID3 tag : No
Command line compressor : C:\Program Files (x86)\Exact Audio Copy\FLAC\FLAC.EXE
Additional command line options : -6 -V -T "ARTIST=%artist%" -T "TITLE=%title%" -T "ALBUM=%albumtitle%" -T "DATE=%year%" -T "TRACKNUMBER=%tracknr%" -T "GENRE=%genre%" -T "COMMENT=%comment%" -T "BAND=%albuminterpret%" -T "ALBUMARTIST=%albuminterpret%" -T "COMPOSER=%composer%" %haslyrics%–tag-from-file=LYRICS="%lyricsfile%"%haslyrics% -T "DISCNUMBER=%cdnumber%" -T "TOTALDISCS=%totalcds%" -T "TOTALTRACKS=%numtracks%" %hascover%–picture="%coverfile%"%hascover% %source% -o %dest%


TOC of the extracted CD

Track | Start | Length | Start sector | End sector
––––––––––––––––––––––––––––-
1 | 0:00.00 | 7:58.49 | 0 | 35898
2 | 7:58.49 | 1:20.03 | 35899 | 41901
3 | 9:18.52 | 0:47.59 | 41902 | 45485
4 | 10:06.36 | 5:39.11 | 45486 | 70921
5 | 15:45.47 | 1:10.59 | 70922 | 76230
6 | 16:56.31 | 0:26.06 | 76231 | 78186
7 | 17:22.37 | 3:00.50 | 78187 | 91736
8 | 20:23.12 | 5:07.08 | 91737 | 114769
9 | 25:30.20 | 1:07.71 | 114770 | 119865
10 | 26:38.16 | 5:17.38 | 119866 | 143678
11 | 31:55.54 | 0:36.53 | 143679 | 146431
12 | 32:32.32 | 1:14.72 | 146432 | 152053
13 | 33:47.29 | 0:44.43 | 152054 | 155396
14 | 34:31.72 | 0:42.73 | 155397 | 158619
15 | 35:14.70 | 3:40.01 | 158620 | 175120
16 | 38:54.71 | 0:19.21 | 175121 | 176566
17 | 39:14.17 | 0:38.17 | 176567 | 179433
18 | 39:52.34 | 0:55.13 | 179434 | 183571
19 | 40:47.47 | 9:02.53 | 183572 | 224274
20 | 49:50.25 | 0:13.24 | 224275 | 225273
21 | 50:03.49 | 2:59.00 | 225274 | 238698
22 | 53:02.49 | 0:20.36 | 238699 | 240234
23 | 53:23.10 | 1:23.41 | 240235 | 246500
24 | 54:46.51 | 1:58.48 | 246501 | 255398
25 | 56:45.24 | 0:08.51 | 255399 | 256049
26 | 56:54.00 | 0:49.07 | 256050 | 259731
27 | 57:43.07 | 0:42.51 | 259732 | 262932
28 | 58:25.58 | 0:45.49 | 262933 | 266356
29 | 59:11.32 | 7:03.61 | 266357 | 298142
30 | 66:15.18 | 1:10.05 | 298143 | 303397
31 | 67:25.23 | 4:55.11 | 303398 | 325533
32 | 72:20.34 | 0:25.10 | 325534 | 327418
33 | 72:45.44 | 0:55.04 | 327419 | 331547
34 | 73:40.48 | 0:20.21 | 331548 | 333068
35 | 74:00.69 | 0:54.55 | 333069 | 337173
36 | 74:55.49 | 2:11.28 | 337174 | 347026


Range status and errors

Selected range

Filename C:\EACRip\NOEL\Bach - Weihnachtsoratorium (Christmas Oratorio) (Nikolaus Harnoncourt) (2008)\CD1\Bach - Weihnachtsoratorium (Christmas Oratorio) (Disc 1) - Nikolaus Harnoncourt.wav

Peak level 99.8 %
Extraction speed 9.9 X
Range quality 100.0 %
Test CRC C91045B0
Copy CRC C91045B0
Copy OK

No errors occurred


AccurateRip summary

Track 1 accurately ripped (confidence 12) [A2BFF7EA] (AR v2)
Track 2 accurately ripped (confidence 12) [46A17A4D] (AR v2)
Track 3 accurately ripped (confidence 12) [AF0B9CCF] (AR v2)
Track 4 accurately ripped (confidence 12) [5E41279B] (AR v2)
Track 5 accurately ripped (confidence 12) [2B853F8F] (AR v2)
Track 6 accurately ripped (confidence 12) [FAAB7C0F] (AR v2)
Track 7 accurately ripped (confidence 12) [C8E19138] (AR v2)
Track 8 accurately ripped (confidence 12) [2EAC074E] (AR v2)
Track 9 accurately ripped (confidence 12) [C40B3429] (AR v2)
Track 10 accurately ripped (confidence 12) [3263B7BD] (AR v2)
Track 11 accurately ripped (confidence 12) [8CBDD838] (AR v2)
Track 12 accurately ripped (confidence 12) [66E479C3] (AR v2)
Track 13 accurately ripped (confidence 12) [21C33788] (AR v2)
Track 14 accurately ripped (confidence 12) [92B6A2BC] (AR v2)
Track 15 accurately ripped (confidence 12) [60878F97] (AR v2)
Track 16 accurately ripped (confidence 12) [738DF579] (AR v2)
Track 17 accurately ripped (confidence 12) [581CED1D] (AR v2)
Track 18 accurately ripped (confidence 12) [411BF47D] (AR v2)
Track 19 accurately ripped (confidence 12) [B7A28A9A] (AR v2)
Track 20 accurately ripped (confidence 12) [12C15B25] (AR v2)
Track 21 accurately ripped (confidence 12) [0A9E82C7] (AR v2)
Track 22 accurately ripped (confidence 12) [A53A5F87] (AR v2)
Track 23 accurately ripped (confidence 12) [5CD82B3A] (AR v2)
Track 24 accurately ripped (confidence 12) [933972D9] (AR v2)
Track 25 accurately ripped (confidence 12) [7DD68B24] (AR v2)
Track 26 accurately ripped (confidence 12) [5D2F9E1B] (AR v2)
Track 27 accurately ripped (confidence 12) [F4F29863] (AR v2)
Track 28 accurately ripped (confidence 12) [7B08031B] (AR v2)
Track 29 accurately ripped (confidence 12) [8A45F847] (AR v2)
Track 30 accurately ripped (confidence 12) [4FC0B4A9] (AR v2)
Track 31 accurately ripped (confidence 12) [FDFC16AD] (AR v2)
Track 32 accurately ripped (confidence 12) [4339212E] (AR v2)
Track 33 accurately ripped (confidence 12) [973CD3A8] (AR v2)
Track 34 accurately ripped (confidence 12) [EC810947] (AR v2)
Track 35 accurately ripped (confidence 12) [B41E6133] (AR v2)
Track 36 accurately ripped (confidence 12) [6BB334CF] (AR v2)

All tracks accurately ripped

End of status report

–– CUETools DB Plugin V2.1.6

[CTDB TOCID: nFFR1PwygpGaBgRazlwCYTDRrTw-] found
Submit result: nFFR1PwygpGaBgRazlwCYTDRrTw- has been confirmed
Track | CTDB Status
1 | (161/161) Accurately ripped
2 | (161/161) Accurately ripped
3 | (161/161) Accurately ripped
4 | (161/161) Accurately ripped
5 | (161/161) Accurately ripped
6 | (161/161) Accurately ripped
7 | (160/161) Accurately ripped
8 | (161/161) Accurately ripped
9 | (161/161) Accurately ripped
10 | (161/161) Accurately ripped
11 | (161/161) Accurately ripped
12 | (161/161) Accurately ripped
13 | (161/161) Accurately ripped
14 | (161/161) Accurately ripped
15 | (161/161) Accurately ripped
16 | (161/161) Accurately ripped
17 | (161/161) Accurately ripped
18 | (161/161) Accurately ripped
19 | (161/161) Accurately ripped
20 | (161/161) Accurately ripped
21 | (161/161) Accurately ripped
22 | (160/161) Accurately ripped
23 | (161/161) Accurately ripped
24 | (161/161) Accurately ripped
25 | (161/161) Accurately ripped
26 | (161/161) Accurately ripped
27 | (161/161) Accurately ripped
28 | (160/161) Accurately ripped
29 | (160/161) Accurately ripped
30 | (161/161) Accurately ripped
31 | (161/161) Accurately ripped
32 | (159/161) Accurately ripped
33 | (161/161) Accurately ripped
34 | (161/161) Accurately ripped
35 | (160/161) Accurately ripped
36 | (160/161) Accurately ripped


==== Log checksum 54F1CCD8CE704AA2B489B564C07B5F2A3055497A4B27809DE5A30E22C8ED578A ====


Exact Audio Copy V1.3 from 2. September 2016

EAC extraction logfile from 15. December 2018, 18:24

Christine Schafer, Bernarda Fink, Werner Gura, Gerald Finley, Christian Gerhaher; Nikolaus Harnoncourt / Bach - Weihnachtsoratorium (Christmas Oratorio) (Disc 2)

Used drive : ATAPI iHAS124 F Adapter: 1 ID: 0

Read mode : Secure
Utilize accurate stream : Yes
Defeat audio cache : Yes
Make use of C2 pointers : No

Read offset correction : 6
Overread into Lead-In and Lead-Out : No
Fill up missing offset samples with silence : Yes
Delete leading and trailing silent blocks : No
Null samples used in CRC calculations : Yes
Used interface : Native Win32 interface for Win NT & 2000

Used output format : User Defined Encoder
Selected bitrate : 1024 kBit/s
Quality : High
Add ID3 tag : No
Command line compressor : C:\Program Files (x86)\Exact Audio Copy\FLAC\FLAC.EXE
Additional command line options : -6 -V -T "ARTIST=%artist%" -T "TITLE=%title%" -T "ALBUM=%albumtitle%" -T "DATE=%year%" -T "TRACKNUMBER=%tracknr%" -T "GENRE=%genre%" -T "COMMENT=%comment%" -T "BAND=%albuminterpret%" -T "ALBUMARTIST=%albuminterpret%" -T "COMPOSER=%composer%" %haslyrics%–tag-from-file=LYRICS="%lyricsfile%"%haslyrics% -T "DISCNUMBER=%cdnumber%" -T "TOTALDISCS=%totalcds%" -T "TOTALTRACKS=%numtracks%" %hascover%–picture="%coverfile%"%hascover% %source% -o %dest%


TOC of the extracted CD

Track | Start | Length | Start sector | End sector
––––––––––––––––––––––––––––-
1 | 0:00.00 | 6:07.24 | 0 | 27548
2 | 6:07.24 | 0:25.51 | 27549 | 29474
3 | 6:33.00 | 2:29.01 | 29475 | 40650
4 | 9:02.01 | 6:00.53 | 40651 | 67703
5 | 15:02.54 | 1:28.59 | 67704 | 74362
6 | 16:31.38 | 4:52.06 | 74363 | 96268
7 | 21:23.44 | 2:03.62 | 96269 | 105555
8 | 23:27.31 | 7:29.02 | 105556 | 139232
9 | 30:56.33 | 0:22.45 | 139233 | 140927
10 | 31:19.03 | 1:43.06 | 140928 | 148658
11 | 33:02.09 | 0:56.03 | 148659 | 152861
12 | 33:58.12 | 4:23.28 | 152862 | 172614
13 | 38:21.40 | 0:11.55 | 172615 | 173494
14 | 38:33.20 | 0:32.42 | 173495 | 175936
15 | 39:05.62 | 1:14.38 | 175937 | 181524
16 | 40:20.25 | 5:26.32 | 181525 | 206006
17 | 45:46.57 | 0:25.03 | 206007 | 207884
18 | 46:11.60 | 1:07.41 | 207885 | 212950
19 | 47:19.26 | 5:23.60 | 212951 | 237235
20 | 52:43.11 | 0:40.36 | 237236 | 240271
21 | 53:23.47 | 0:52.74 | 240272 | 244245
22 | 54:16.46 | 4:31.07 | 244246 | 264577
23 | 58:47.53 | 1:09.59 | 264578 | 269811
24 | 59:57.37 | 1:10.26 | 269812 | 275087
25 | 61:07.63 | 0:20.22 | 275088 | 276609
26 | 61:28.10 | 1:52.40 | 276610 | 285049
27 | 63:20.50 | 4:41.25 | 285050 | 306149
28 | 68:02.00 | 0:34.02 | 306150 | 308701
29 | 68:36.02 | 3:23.64 | 308702 | 323990


Range status and errors

Selected range

Filename C:\EACRip\NOEL\Bach - Weihnachtsoratorium (Christmas Oratorio) (Nikolaus Harnoncourt) (2008)\CD2\Bach - Weihnachtsoratorium (Christmas Oratorio) (Disc 2) - Nikolaus Harnoncourt.wav

Peak level 99.8 %
Extraction speed 9.8 X
Range quality 100.0 %
Test CRC 35EDDAE7
Copy CRC 35EDDAE7
Copy OK

No errors occurred


AccurateRip summary

Track 1 accurately ripped (confidence 11) [CD8CCFF5] (AR v2)
Track 2 accurately ripped (confidence 11) [1DF79BD1] (AR v2)
Track 3 accurately ripped (confidence 11) [A368E892] (AR v2)
Track 4 accurately ripped (confidence 11) [43034A73] (AR v2)
Track 5 accurately ripped (confidence 11) [2FE571FD] (AR v2)
Track 6 accurately ripped (confidence 11) [058D28DF] (AR v2)
Track 7 accurately ripped (confidence 11) [F9250E95] (AR v2)
Track 8 accurately ripped (confidence 11) [AB369D9C] (AR v2)
Track 9 accurately ripped (confidence 11) [5CCCD612] (AR v2)
Track 10 accurately ripped (confidence 11) [8E661208] (AR v2)
Track 11 accurately ripped (confidence 11) [64A4A9C7] (AR v2)
Track 12 accurately ripped (confidence 11) [53ED0110] (AR v2)
Track 13 accurately ripped (confidence 11) [B77185C8] (AR v2)
Track 14 accurately ripped (confidence 11) [67C10C44] (AR v2)
Track 15 accurately ripped (confidence 11) [52EB203E] (AR v2)
Track 16 accurately ripped (confidence 11) [635DEB1C] (AR v2)
Track 17 accurately ripped (confidence 11) [9104D0BF] (AR v2)
Track 18 accurately ripped (confidence 11) [7B94D616] (AR v2)
Track 19 accurately ripped (confidence 11) [C455AC73] (AR v2)
Track 20 accurately ripped (confidence 11) [886BA393] (AR v2)
Track 21 accurately ripped (confidence 11) [0B2F78D3] (AR v2)
Track 22 accurately ripped (confidence 11) [67FF63DF] (AR v2)
Track 23 accurately ripped (confidence 11) [F51BC088] (AR v2)
Track 24 accurately ripped (confidence 11) [D1CB76D6] (AR v2)
Track 25 accurately ripped (confidence 11) [42F1439B] (AR v2)
Track 26 accurately ripped (confidence 11) [EE9B8B2D] (AR v2)
Track 27 accurately ripped (confidence 11) [9B1BE44B] (AR v2)
Track 28 accurately ripped (confidence 11) [0A163CC4] (AR v2)
Track 29 accurately ripped (confidence 11) [6D4FE292] (AR v2)

All tracks accurately ripped

End of status report

–– CUETools DB Plugin V2.1.6

[CTDB TOCID: _wdfxxcYo1PVc8ESeJcOm36k0g0-] database access error: Nie można rozpoznać nazwy zdalnej: 'db.cuetools.net'


==== Log checksum B70EEEE122C8CCACE5F2FCD267D287418EA9F396719537974A4A141508152E08 ====

Nikolaus Harnoncourt, Concentus Musicus Wien, Arnold Schoenberg Chor - Bach: Weihnachtsoratorium (2008)