Tags
Language
Tags

Nikolaus Harnoncourt, Concentus Musicus Wien, Arnold Schoenberg Chor - Johann Sebastian Bach: Matthäus-Passion (2001)

Posted By:
Nikolaus Harnoncourt, Concentus Musicus Wien, Arnold Schoenberg Chor - Johann Sebastian Bach: Matthäus-Passion (2001)

Nikolaus Harnoncourt, Concentus Musicus Wien, Arnold Schoenberg Chor - Johann Sebastian Bach: Matthäus-Passion (2001)
EAC | FLAC | Image (Cue & Log) ~ 769 Mb | Total time: 162:15 | Scans included
Classical | Label: Teldec | # 8573-81036-2 | Recorded: 2000

Nikolaus Harnoncourt war der vielleicht wichtigste Pionier einer Musikauffassung, die hinter der spätromantischen Sichtweise auf die Passionen Johann Sebastian Bachs das originale Klangbild suchte. Dabei ging es ihm keineswegs um Authentizität als Selbstzweck, sondern vielmehr um ein Ausloten der Bach'schen Klangfarben und Ausdrucksmittel, die im Brahms- und Bruckner-Sound der großen Oratorienchöre und Symphonieorchester verloren gegangen waren. Inzwischen ist diese Auffassung etabliert und Harnoncourt weit ins romantische Repertoire eingedrungen. Die Zeit reinen Bach- und Mozart-Spezialistentums scheint vorbei. Mit der Neueinspielung der Matthäus-Passion begibt sich der Dirigent daher wieder zurück zu seinen Wurzeln.
Auch in der vorliegenden Aufnahme setzt Harnoncourt auf extrem kleine Orchesterbesetzung mit historischen Instrumenten. Die Zeiten, in denen man mit dem Schlagwort "historische Aufführungspraxis" kratzende Geigen und jaulende Oboen verband, sind - dem fortgeschrittenen Wissen um den Instrumentenbau der Bach-Zeit sei Dank - vorbei. Der Farbreichtum des Concentus Musicus ist enorm, transparent bis ins kleinste Detail hinein, und dennoch ist der Orchesterklang jederzeit "groß" im Ton. Auch die durch die Doppelchörigkeit evozierte die Raumwirkung der Musik fängt die Aufnahme recht natürlich ein.
Überraschend an dieser Aufnahme ist, dass Harnoncourt an Stelle eines (in früheren Bach-Einspielungen fast durchweg favorisierten) Knaben-Männer-Ensembles einen gemischten Chor (den exzellenten, aber von der Aufnahmetechnik recht weit in den Hintergrund gerückten Arnold-Schoenberg-Chor) und auch Frauenstimmen in den Solistenquartetten einsetzt. Die Unmittelbarkeit der Knabenstimmen, durch die sich die besten Aufnahmen Harnoncourts auszeichnen, ist dadurch nicht gegeben. Und bei den Altistinnen Bernada Fink und Elisabeth von Magnus tritt genau das Problem auf, vor dem Harnoncourt früher gewarnt hat: Die tiefen Frauenstimmen mischen sich weniger gut mit dem Instrumentalklang, als Knaben- oder Altus-Stimmen dies könnten.
Trotzdem macht diese Besetzung "Sinn". Zum einen sucht Harnoncourt einen stark opernhaften Zugang, allerdings nicht im Sinne des romantischen Musikdramas, sondern der Barockoper. Der Chor nimmt darin, sowohl in den Turbae-Chören als auch in den sehr nah am Text interpretierten Chorälen, eine sehr stark dramatische Funktion als unmittelbar fühlendes Subjekt ein. Ein Knabenchor mit einem "objektiveren", auch "unschuldigerem" Klang wäre nicht in dem Maße "mit-leidend", wie es der gemischte Chor hier ist. Gleiches gilt für die Solisten: Die sind nicht in erster Linie Stellvertreter einer sündig gewordenen Welt, sondern im opernhaften Sinne direkt als Individuum Betroffene. In den Arien werden die Ängste dessen, der gerade singt, ausgedrückt (und nicht, wie das durch eine Art Überhöhung in vielen Aufnahmen zu hören ist, die der Menschheit). Das Vibrato, das Zittern in den Frauenstimmen gewinnt hier eine inhaltliche Funktion.
Man hört der Aufnahme in jedem Ton das Ringen um den existenziellen Gehalt der Matthäuspassion an, und zwar auf einer vorrangig textlich-inhaltlichen Ebene. Nicht zuletzt wird die Frage nach der "richtigen" Besetzung hier auch theologisch entschieden. Die Interpretation meidet die festliche Aura, den Schein der Erlösung, den die Musik in anderen Einspielungen trägt. Die Grundstimmung ist herb und trübe: Wer so erlösungsbedürftig ist, darf nicht auch noch "schön" singen.
Mit Christoph Prégardien steht Harnoncourt ein herausragender Evangelist zur Seite, der mit viel Musikalität und Intelligenz den erzählerischen Duktus und die theatralische Komponente in Einklang bringt. Matthias Goerne singt einen erdverbundenen Christus, den aber eine Ahnung von himmlischer Sphäre umgibt. In den Arien dominiert die strenge Grundhaltung, die den Solisten kaum Wohlklang gönnt. Man mag das im Einzelnen bedauern, aber im Gesamteindruck ist diese Sichtweise grandios.
Die Musik strebt permanent nach vorne. Der Theaterpraktiker Harnoncourt verweilt nicht auf schönen Momenten, sondern baut mit ungeheuerer Spannung einen großen Bogen. Innerhalb der stabilen Grundtempi der einzelnen Sätze brodelt es gewaltig. Harnoncourt nimmt sich alle Freiheiten, innerhalb kleinster Partikel das Tempo extrem zu variieren (und hat ein wunderbares Ensemble, das ihm darin virtuos folgt). Selbst die Choräle erhalten dadurch eine immense Binnendynamik. Das Erstaunliche daran ist, dass die Musik trotzdem in keiner Weise romantisch eingetrübt wird. Eine Matthäuspassion, passend zum Osterbraten, ist das sicher nicht - dafür aber eine der aufregendsten Aufnahmen.
–Stefan Schmöe

Performer:
Christoph Prégardien (Evagelist)
Matthias Goerne (Christusworte)
Christine Schäfer, Sopran I
Dorothea Röschmann, Sopran II
Bernarda Fink, Alt I
Elisabeth von Magnus, Alt II
Michael Schade, Tenor I
Markus Schäfer, Tenor II
Dietrisch Henschel, Bass I
Oliver Widmer, Bass II
Wiener Sängerknaben
Arnold Schoenberg Chor
Concentus Musicus Wien
Nikolaus Harnoncourt, conductor

Track List:
CD1:
01. Part I. 1. Choral: Kommt, ihr Töchter, helft mir klagen - O Lamm Gottes unschuldig (Chorus I, II)
02. 2. Evangelist, Jesus: Da Jesus diese Rede vollendet hatte
03. 3. Choral: Herzliebster Jesu, was hast du verbrochen
04. 4. Evangelist: Da versammelten sich die Hohepriester; Chorus (I, II): Ja nicht auf das Fest…
05. 5. Recitativo: Du lieber Heiland du (Alto I)
06. 6. Aria: Buß und Reu (Alto I)
07. 7. Evangelist, Judas: Da ging hin der Zwölfen einer
08. 8. Aria: Blute nur, du liebes Hertz (Soprano II)
09. 9. Evangelist: Aber am ersten Tageder Süßen Brot; Chorus I: Wo willst du, daß wir dir bereiten…
10. 10. Choral: Ich bin's, ich sollte büßen
11. 11. Evangelist, Jesus: Er antwortete und sprach
12. 12. Recitativo: Wiewohl mein Herz in Tränen schwimmt (Soprano I)
13. 13. Aria: Ich will dir mein Herze schenken (Soprano I)
14. 14. Evangelist, Jesus: Und da sie den Lobgesang gesprochen hatten
15. 15. Choral: Erkenne mich, mein Hüter
16. 16. Evangelist, Peter, Jesus: Petrus aber antwortete und sprach zu ihm
17. 17. Choral: Ich will hier bei dirstehen
18. 18. Evangelist, Jesus: Da kam Jesus mitihnen zu einem Hofe
19. 19. Recitativo: O Schmerz! (Tenore I); Chorus II: Was ist die Ursach
20. 20. Aria: Ich will bei meinem Jesu wachen (Tenore I); Chorus II: So schlafen unsre Sünden ein
21. 21. Evangelist: Und ging hin ein wenig
22. 22. Recitativo: Der Heiland fällt vor seinem Vater nieder (Basso II)
23. 23. Aria: Gerne will ich mich bequemen (Basso II)
24. 24. Evangelist, Jesus: Und er kam zu seinen Jüngern
25. 25. Choral: Was mein Gott will
26. 26. Evangelist, Jesus, Judas: Und er kam und fand sie aber schlafend
27. 27. Aria: So ist mein Jesus nun gefangen (Soprano I, Alto I); Chorus II: Laßt ihn! haltet! bindet nicht!..
28. 28. Evangelist, Jesus: Und siehe, einer aus denen
29. 29. Choral: O Mensch, bewein' dein Sünde groß
CD2:
01. Part II. 30. Aria: Ach! Nun ist mein Jesus hin! (Alto I); Chorus II: Wo ist denn
02. 31. Evangelist - Die aber Jesum gegriffen hatten
03. 32. Choral - Mir hat die Welt trüglich gericht'
04. 33. Evangelist, Witnesses, High Priest: Und wiewohl viel falsche Zeugen herzutraten
05. 34. Recitativo - Mein Jesus schweigt zu falschen Lügen stille (Tenor II)
06. 35. Aria: Geduld, Geduld! Wenn mich falsche Zungen stechen (Tenor II)
07. 36. Evangelist, High Priest, Jesus: Und der Hohepriester antwortete …
08. 37. Choral: Wer hat dich so geschlagen
09. 38. Evangelist, Maid, Peter, Maid II: Petrus aber saß draußen im Palast
10. 39. Aria: Erbarme dich, mein Gott, um meiner Zähren Willen! (Alto I)
11. 40. Choral - Bin Ich gleich von dir gewichen
12. 41. Evangelist, Judas: Des Morgens aber hielten alle Hohepriester…
13. 42. Aria: Gebt mir meinen Jesus wieder! (Bass II)
14. 43. Evangelist, Pilate, Jesus: Sie hielten aber einen Rat und kauften einen Töpfersacker
15. 44. Choral: Befiehl Du deine Wege
16. 45. Evangelist, Pilate, Pilate's wife: Auf das Fest aber hatte der Landpfleger Gewohnheit…
17. 46. Choral: Wie wunderlich ist doch diese Strafe!
18. 47. Evangelist, Pilate: Der Landpfleger sagte
19. 48. Recitativo: Er hat uns allen wohlgetan (Soprano I)
20. 49. Aria: Aus Liebe will mein Heiland sterben (Soprano I)
21. 50. Evangelist: Sie schrieen aber noch mehr und sprachen; Coro I & II: Laß ihn kreuzigen!..
22. 51. Recitativo: Erbarm es, Gott! Hier steht der Heiland angebunden (Alto II)
23. 52. Aria: Können Tränen meiner Wangen (Alto II)
24. 53. Evangelist: Da nahmen die Kriegsknechte des Landpflegers Jesum zu sich
25. 54. Choral: O Haupt voll Blut und Wunden
26. 55. Evangelist: Und da sie ihn verspottet hatten, zogen sie ihm den Mantel aus
27. 56. Recitativo: Ja, freilich will in uns das Fleisch (Bass I)
28. 57. Aria: Komm, süßes Kreuz, so will ich sagen (Bass I)
CD3:
01. 58. Evangelist: Und da sie an die Stätte kamen mit Namen Golgatha…
02. 59. Recitativo: Ach Golgatha, unselges Golgatha! (Alto I)
03. 60. Aria: Sehet, Jesus hat die Hand uns zu fassen ausgespannt, kommt! (Alto I); Chorus: Wohin? (Chorus II)
04. 61. Evangelist, Jesus: Und von der sechsten Stunde an war eine Finsternis über das ganze Land…
05. 62. Chorale: Wenn ich einmal soll scheiden
06. 63. Evangelist: Und siehe da, der Vorhang im Tempel zerriß in zwei Stück…
07. 64. Recitativo: Am Abend, da es kühle war (Basso I)
08. 65. Aria: Mache dich, mein Herze, rein (Basso I)
09. 66. Evangelist: Und Joseph nahm den Leib und wickelte ihn in ein rein Leinwand…
10. 67. Recitativo: Nun ist der Herr (Soprano I, Alto I, Tenore I, Basso I) – Chorus: Mein Jesu, gute Nacht! (Chorus II)
11. 68. Chorus (I,II): Wir setzen uns mit Tränen nieder


Exact Audio Copy V1.5 from 20. February 2020

EAC extraction logfile from 24. February 2021, 13:19

Christoph Pregardien, Matthias Goerne, Christine Schafer, Dorothea Roschmann, Bernarda Fink, Elisabeth von Magnus, Michael Scha / Matthäus-Passion (Disc 1)

Used drive : ATAPI iHAS124 F Adapter: 1 ID: 0

Read mode : Secure
Utilize accurate stream : Yes
Defeat audio cache : Yes
Make use of C2 pointers : No

Read offset correction : 6
Overread into Lead-In and Lead-Out : No
Fill up missing offset samples with silence : Yes
Delete leading and trailing silent blocks : No
Null samples used in CRC calculations : Yes
Used interface : Native Win32 interface for Win NT & 2000

Used output format : User Defined Encoder
Selected bitrate : 1024 kBit/s
Quality : High
Add ID3 tag : No
Command line compressor : C:\Program Files (x86)\Exact Audio Copy\FLAC\FLAC.EXE
Additional command line options : -6 -V -T "ARTIST=%artist%" -T "TITLE=%title%" -T "ALBUM=%albumtitle%" -T "DATE=%year%" -T "TRACKNUMBER=%tracknr%" -T "GENRE=%genre%" -T "COMMENT=%comment%" -T "BAND=%albuminterpret%" -T "ALBUMARTIST=%albuminterpret%" -T "COMPOSER=%composer%" %haslyrics%–tag-from-file=LYRICS="%lyricsfile%"%haslyrics% -T "DISCNUMBER=%cdnumber%" -T "TOTALDISCS=%totalcds%" -T "TOTALTRACKS=%numtracks%" %hascover%–picture="%coverfile%"%hascover% %source% -o %dest%


TOC of the extracted CD

Track | Start | Length | Start sector | End sector
––––––––––––––––––––––––––––-
1 | 0:00.00 | 6:45.40 | 0 | 30414
2 | 6:45.40 | 0:40.22 | 30415 | 33436
3 | 7:25.62 | 0:43.38 | 33437 | 36699
4 | 8:09.25 | 3:03.37 | 36700 | 50461
5 | 11:12.62 | 0:59.63 | 50462 | 54949
6 | 12:12.50 | 4:47.25 | 54950 | 76499
7 | 17:00.00 | 0:35.05 | 76500 | 79129
8 | 17:35.05 | 4:37.32 | 79130 | 99936
9 | 22:12.37 | 2:19.25 | 99937 | 110386
10 | 24:31.62 | 0:51.73 | 110387 | 114284
11 | 25:23.60 | 3:06.02 | 114285 | 128236
12 | 28:29.62 | 1:16.18 | 128237 | 133954
13 | 29:46.05 | 3:41.70 | 133955 | 150599
14 | 33:28.00 | 1:08.62 | 150600 | 155761
15 | 34:36.62 | 1:03.40 | 155762 | 160526
16 | 35:40.27 | 0:57.48 | 160527 | 164849
17 | 36:38.00 | 1:00.62 | 164850 | 169411
18 | 37:38.62 | 1:47.20 | 169412 | 177456
19 | 39:26.07 | 1:44.05 | 177457 | 185261
20 | 41:10.12 | 5:29.63 | 185262 | 209999
21 | 46:40.00 | 0:44.25 | 210000 | 213324
22 | 47:24.25 | 0:47.27 | 213325 | 216876
23 | 48:11.52 | 4:36.60 | 216877 | 237636
24 | 52:48.37 | 1:13.00 | 237637 | 243111
25 | 54:01.37 | 1:06.38 | 243112 | 248099
26 | 55:08.00 | 2:24.00 | 248100 | 258899
27 | 57:32.00 | 4:54.10 | 258900 | 280959
28 | 62:26.10 | 2:20.27 | 280960 | 291486
29 | 64:46.37 | 5:56.70 | 291487 | 318256


Range status and errors

Selected range

Filename C:\EACRip\BACH\Bach - Matthaus-Passion (Nikolaus Harnoncourt) (2001)\CD1\Bach - Matthaus-Passion (Disc 1) - Nikolaus Harnoncourt [2000].wav

Peak level 80.3 %
Extraction speed 9.4 X
Range quality 100.0 %
Test CRC 0EE77971
Copy CRC 0EE77971
Copy OK

No errors occurred


AccurateRip summary

Track 1 accurately ripped (confidence 82) [AD764C54] (AR v2)
Track 2 accurately ripped (confidence 84) [CAE03DD1] (AR v2)
Track 3 accurately ripped (confidence 84) [EC3003EA] (AR v2)
Track 4 accurately ripped (confidence 84) [8E24DD07] (AR v2)
Track 5 accurately ripped (confidence 84) [4EA95963] (AR v2)
Track 6 accurately ripped (confidence 84) [9D47D811] (AR v2)
Track 7 accurately ripped (confidence 85) [A8152FBE] (AR v2)
Track 8 accurately ripped (confidence 83) [E2F8FC99] (AR v2)
Track 9 accurately ripped (confidence 84) [BAFD6D43] (AR v2)
Track 10 accurately ripped (confidence 83) [089DA0F3] (AR v2)
Track 11 accurately ripped (confidence 84) [84F5CBA3] (AR v2)
Track 12 accurately ripped (confidence 84) [D1E42802] (AR v2)
Track 13 accurately ripped (confidence 83) [915DB07D] (AR v2)
Track 14 accurately ripped (confidence 84) [83D5B6C7] (AR v2)
Track 15 accurately ripped (confidence 85) [2A62225A] (AR v2)
Track 16 accurately ripped (confidence 85) [8F3FC686] (AR v2)
Track 17 accurately ripped (confidence 85) [ECA18C9E] (AR v2)
Track 18 accurately ripped (confidence 83) [744066E9] (AR v2)
Track 19 accurately ripped (confidence 83) [D33237F0] (AR v2)
Track 20 accurately ripped (confidence 84) [F7E0C089] (AR v2)
Track 21 accurately ripped (confidence 84) [DC5780B1] (AR v2)
Track 22 accurately ripped (confidence 84) [CE8D487C] (AR v2)
Track 23 accurately ripped (confidence 82) [76261AE6] (AR v2)
Track 24 accurately ripped (confidence 83) [EF0DF95E] (AR v2)
Track 25 accurately ripped (confidence 83) [DAD1DD3C] (AR v2)
Track 26 accurately ripped (confidence 82) [349FE39A] (AR v2)
Track 27 accurately ripped (confidence 80) [D50C8E27] (AR v2)
Track 28 accurately ripped (confidence 80) [4D728968] (AR v2)
Track 29 accurately ripped (confidence 78) [8A801331] (AR v2)

All tracks accurately ripped

End of status report

–– CUETools DB Plugin V2.1.6

[CTDB TOCID: hLN.l9Aeu_2Yh3BbktC282pKG7U-] found
Submit result: hLN.l9Aeu_2Yh3BbktC282pKG7U- has been confirmed
Track | CTDB Status
1 | (262/274) Accurately ripped
2 | (270/274) Accurately ripped
3 | (269/274) Accurately ripped
4 | (270/274) Accurately ripped
5 | (271/274) Accurately ripped
6 | (268/274) Accurately ripped
7 | (272/274) Accurately ripped
8 | (268/274) Accurately ripped
9 | (272/274) Accurately ripped
10 | (273/274) Accurately ripped
11 | (268/274) Accurately ripped
12 | (270/274) Accurately ripped
13 | (270/274) Accurately ripped
14 | (273/274) Accurately ripped
15 | (273/274) Accurately ripped
16 | (273/274) Accurately ripped
17 | (274/274) Accurately ripped
18 | (270/274) Accurately ripped
19 | (270/274) Accurately ripped
20 | (265/274) Accurately ripped
21 | (271/274) Accurately ripped
22 | (272/274) Accurately ripped
23 | (268/274) Accurately ripped
24 | (268/274) Accurately ripped
25 | (269/274) Accurately ripped
26 | (267/274) Accurately ripped
27 | (268/274) Accurately ripped
28 | (269/274) Accurately ripped
29 | (265/274) Accurately ripped


==== Log checksum 915C705EAAF617112ED77FF03265142434950CC3973D7C4F33DEB6D2A867A28B ====


Exact Audio Copy V1.5 from 20. February 2020

EAC extraction logfile from 24. February 2021, 14:05

Christoph Pregardien, Matthias Goerne, Christine Schafer, Dorothea Roschmann, Bernarda Fink, Elisabeth von Magnus, Michael Scha / Matthäus-Passion (Disc 2)

Used drive : ASUS BC-12B1ST Adapter: 1 ID: 0

Read mode : Secure
Utilize accurate stream : Yes
Defeat audio cache : Yes
Make use of C2 pointers : No

Read offset correction : 702
Overread into Lead-In and Lead-Out : No
Fill up missing offset samples with silence : Yes
Delete leading and trailing silent blocks : No
Null samples used in CRC calculations : Yes
Used interface : Native Win32 interface for Win NT & 2000

Used output format : User Defined Encoder
Selected bitrate : 1024 kBit/s
Quality : High
Add ID3 tag : No
Command line compressor : C:\Program Files (x86)\Exact Audio Copy\FLAC\FLAC.EXE
Additional command line options : -6 -V -T "ARTIST=%artist%" -T "TITLE=%title%" -T "ALBUM=%albumtitle%" -T "DATE=%year%" -T "TRACKNUMBER=%tracknr%" -T "GENRE=%genre%" -T "COMMENT=%comment%" -T "BAND=%albuminterpret%" -T "ALBUMARTIST=%albuminterpret%" -T "COMPOSER=%composer%" %haslyrics%–tag-from-file=LYRICS="%lyricsfile%"%haslyrics% -T "DISCNUMBER=%cdnumber%" -T "TOTALDISCS=%totalcds%" -T "TOTALTRACKS=%numtracks%" %hascover%–picture="%coverfile%"%hascover% %source% -o %dest%


TOC of the extracted CD

Track | Start | Length | Start sector | End sector
––––––––––––––––––––––––––––-
1 | 0:00.00 | 3:49.37 | 0 | 17211
2 | 3:49.37 | 1:02.33 | 17212 | 21894
3 | 4:51.70 | 0:47.05 | 21895 | 25424
4 | 5:39.00 | 1:07.00 | 25425 | 30449
5 | 6:46.00 | 1:04.72 | 30450 | 35321
6 | 7:50.72 | 3:21.15 | 35322 | 50411
7 | 11:12.12 | 1:53.33 | 50412 | 58919
8 | 13:05.45 | 0:47.47 | 58920 | 62491
9 | 13:53.17 | 2:25.05 | 62492 | 73371
10 | 16:18.22 | 6:02.40 | 73372 | 100561
11 | 22:20.62 | 1:03.25 | 100562 | 105311
12 | 23:24.12 | 1:46.23 | 105312 | 113284
13 | 25:10.35 | 2:58.57 | 113285 | 126691
14 | 28:09.17 | 2:10.25 | 126692 | 136466
15 | 30:19.42 | 1:03.45 | 136467 | 141236
16 | 31:23.12 | 2:21.48 | 141237 | 151859
17 | 33:44.60 | 0:47.07 | 151860 | 155391
18 | 34:31.67 | 0:16.15 | 155392 | 156606
19 | 34:48.07 | 1:04.33 | 156607 | 161439
20 | 35:52.40 | 4:51.07 | 161440 | 183271
21 | 40:43.47 | 1:51.60 | 183272 | 191656
22 | 42:35.32 | 1:05.13 | 191657 | 196544
23 | 43:40.45 | 6:03.35 | 196545 | 223804
24 | 49:44.05 | 1:09.45 | 223805 | 229024
25 | 50:53.50 | 2:08.62 | 229025 | 238686
26 | 53:02.37 | 0:57.15 | 238687 | 242976
27 | 53:59.52 | 0:39.35 | 242977 | 245936
28 | 54:39.12 | 6:14.28 | 245937 | 274014


Range status and errors

Selected range

Filename C:\EACRip\BACH\Bach - Matthaus-Passion (Nikolaus Harnoncourt) (2001)\CD2\Bach - Matthaus-Passion (Disc 2) - Nikolaus Harnoncourt [2000].wav

Peak level 98.5 %
Extraction speed 7.4 X
Range quality 100.0 %
Test CRC E3B8BD4D
Copy CRC E3B8BD4D
Copy OK

No errors occurred


AccurateRip summary

Track 1 accurately ripped (confidence 58) [8F9ECE98] (AR v2)
Track 2 accurately ripped (confidence 60) [75EE79D9] (AR v2)
Track 3 accurately ripped (confidence 60) [964CBFDE] (AR v2)
Track 4 accurately ripped (confidence 60) [3952238A] (AR v2)
Track 5 accurately ripped (confidence 60) [FC4955B2] (AR v2)
Track 6 accurately ripped (confidence 60) [C8CB29F2] (AR v2)
Track 7 accurately ripped (confidence 60) [2C9CF5C0] (AR v2)
Track 8 accurately ripped (confidence 60) [711843C8] (AR v2)
Track 9 accurately ripped (confidence 60) [4F1906B5] (AR v2)
Track 10 accurately ripped (confidence 60) [D27A13C0] (AR v2)
Track 11 accurately ripped (confidence 60) [2FCC225F] (AR v2)
Track 12 accurately ripped (confidence 60) [42963857] (AR v2)
Track 13 accurately ripped (confidence 60) [C15076F3] (AR v2)
Track 14 accurately ripped (confidence 60) [E5D572D0] (AR v2)
Track 15 accurately ripped (confidence 60) [1D256051] (AR v2)
Track 16 accurately ripped (confidence 60) [E0EE214F] (AR v2)
Track 17 accurately ripped (confidence 60) [5408FF37] (AR v2)
Track 18 accurately ripped (confidence 60) [958826A7] (AR v2)
Track 19 accurately ripped (confidence 60) [98B5BB80] (AR v2)
Track 20 accurately ripped (confidence 60) [4D0F9324] (AR v2)
Track 21 accurately ripped (confidence 60) [E3F4D0AE] (AR v2)
Track 22 accurately ripped (confidence 60) [744DEDB9] (AR v2)
Track 23 accurately ripped (confidence 58) [05F64F45] (AR v2)
Track 24 accurately ripped (confidence 60) [CF5B1CDF] (AR v2)
Track 25 accurately ripped (confidence 60) [EEDA180E] (AR v2)
Track 26 accurately ripped (confidence 60) [D5CED981] (AR v2)
Track 27 accurately ripped (confidence 60) [1A3C1648] (AR v2)
Track 28 accurately ripped (confidence 59) [90156E57] (AR v2)

All tracks accurately ripped

End of status report

–– CUETools DB Plugin V2.1.6

[CTDB TOCID: 1kp9Jnq_Nc_btVHIJEx1yEgRyFk-] found
Submit result: 1kp9Jnq_Nc_btVHIJEx1yEgRyFk- has been confirmed
Track | CTDB Status
1 | (271/277) Accurately ripped
2 | (273/277) Accurately ripped
3 | (275/277) Accurately ripped
4 | (272/277) Accurately ripped
5 | (274/277) Accurately ripped
6 | (273/277) Accurately ripped
7 | (273/277) Accurately ripped
8 | (273/277) Accurately ripped
9 | (274/277) Accurately ripped
10 | (273/277) Accurately ripped
11 | (273/277) Accurately ripped
12 | (273/277) Accurately ripped
13 | (272/277) Accurately ripped
14 | (272/277) Accurately ripped
15 | (272/277) Accurately ripped
16 | (272/277) Accurately ripped
17 | (274/277) Accurately ripped
18 | (274/277) Accurately ripped
19 | (272/277) Accurately ripped
20 | (272/277) Accurately ripped
21 | (272/277) Accurately ripped
22 | (272/277) Accurately ripped
23 | (272/277) Accurately ripped
24 | (271/277) Accurately ripped
25 | (270/277) Accurately ripped
26 | (272/277) Accurately ripped
27 | (272/277) Accurately ripped
28 | (266/277) Accurately ripped


==== Log checksum C818D7F680D127AC63C8AA04182B13E9831A9131B6AEE4B576AB3D5B62BFCEA9 ====


Exact Audio Copy V1.5 from 20. February 2020

EAC extraction logfile from 24. February 2021, 14:34

Christoph Pregardien, Matthias Goerne, Christine Schafer, Dorothea Roschmann, Bernarda Fink, Elisabeth von Magnus, Michael Scha / Matthäus-Passion (Disc 3)

Used drive : ASUS BC-12B1ST Adapter: 1 ID: 0

Read mode : Secure
Utilize accurate stream : Yes
Defeat audio cache : Yes
Make use of C2 pointers : No

Read offset correction : 702
Overread into Lead-In and Lead-Out : No
Fill up missing offset samples with silence : Yes
Delete leading and trailing silent blocks : No
Null samples used in CRC calculations : Yes
Used interface : Native Win32 interface for Win NT & 2000

Used output format : User Defined Encoder
Selected bitrate : 1024 kBit/s
Quality : High
Add ID3 tag : No
Command line compressor : C:\Program Files (x86)\Exact Audio Copy\FLAC\FLAC.EXE
Additional command line options : -6 -V -T "ARTIST=%artist%" -T "TITLE=%title%" -T "ALBUM=%albumtitle%" -T "DATE=%year%" -T "TRACKNUMBER=%tracknr%" -T "GENRE=%genre%" -T "COMMENT=%comment%" -T "BAND=%albuminterpret%" -T "ALBUMARTIST=%albuminterpret%" -T "COMPOSER=%composer%" %haslyrics%–tag-from-file=LYRICS="%lyricsfile%"%haslyrics% -T "DISCNUMBER=%cdnumber%" -T "TOTALDISCS=%totalcds%" -T "TOTALTRACKS=%numtracks%" %hascover%–picture="%coverfile%"%hascover% %source% -o %dest%


TOC of the extracted CD

Track | Start | Length | Start sector | End sector
––––––––––––––––––––––––––––-
1 | 0:00.00 | 3:31.70 | 0 | 15894
2 | 3:31.70 | 1:31.50 | 15895 | 22769
3 | 5:03.45 | 2:41.15 | 22770 | 34859
4 | 7:44.60 | 2:15.30 | 34860 | 45014
5 | 10:00.15 | 1:11.10 | 45015 | 50349
6 | 11:11.25 | 2:38.62 | 50350 | 62261
7 | 13:50.12 | 1:35.65 | 62262 | 69451
8 | 15:26.02 | 5:51.58 | 69452 | 95834
9 | 21:17.60 | 2:24.60 | 95835 | 106694
10 | 23:42.45 | 1:44.17 | 106695 | 114511
11 | 25:26.62 | 5:11.48 | 114512 | 137884
12 | 33:10.35 | 31:30.64 | 149285 | 291098


Range status and errors

Selected range

Filename C:\EACRip\BACH\Bach - Matthaus-Passion (Nikolaus Harnoncourt) (2001)\CD3\Bach - Matthaus-Passion (Disc 3) - Nikolaus Harnoncourt [2000].wav

Peak level 96.8 %
Extraction speed 5.4 X
Range quality 100.0 %
Test CRC F2E3BB90
Copy CRC F2E3BB90
Copy OK

No errors occurred


AccurateRip summary

Track 1 accurately ripped (confidence 50) [D6452788] (AR v2)
Track 2 accurately ripped (confidence 49) [48BA6F8B] (AR v2)
Track 3 accurately ripped (confidence 50) [CA53155A] (AR v2)
Track 4 accurately ripped (confidence 50) [A0000B52] (AR v2)
Track 5 accurately ripped (confidence 50) [7056BFF1] (AR v2)
Track 6 accurately ripped (confidence 50) [BCEF36B3] (AR v2)
Track 7 accurately ripped (confidence 50) [60407C0D] (AR v2)
Track 8 accurately ripped (confidence 50) [40DA6BC8] (AR v2)
Track 9 accurately ripped (confidence 50) [DF72C0A2] (AR v2)
Track 10 accurately ripped (confidence 50) [892D5142] (AR v2)
Track 11 accurately ripped (confidence 50) [7BAA4789] (AR v2)

All tracks accurately ripped

End of status report

–– CUETools DB Plugin V2.1.6

[CTDB TOCID: izWz4Xl566ErDWpIKF_n2Us92I4-] found
Submit result: izWz4Xl566ErDWpIKF_n2Us92I4- has been confirmed
Track | CTDB Status
1 | (197/201) Accurately ripped
2 | (200/201) Accurately ripped
3 | (200/201) Accurately ripped
4 | (200/201) Accurately ripped
5 | (200/201) Accurately ripped
6 | (200/201) Accurately ripped
7 | (200/201) Accurately ripped
8 | (199/201) Accurately ripped, or (1/201) differs in 24 samples @00:56:26,01:05:24
9 | (200/201) Accurately ripped
10 | (200/201) Accurately ripped
11 | (197/201) Accurately ripped


==== Log checksum 554157EE7F92F3F81D54A0E7CC2AA7AB72842BDAE7748B60A3D86EC4ABECEED7 ====

Nikolaus Harnoncourt, Concentus Musicus Wien, Arnold Schoenberg Chor - Johann Sebastian Bach: Matthäus-Passion (2001)

Thanks to the original releaser