Tags
Language
Tags

Nikolaus Harnoncourt - The Complete Sony Recordings, Part 9 [6CDs] (2016)

Posted By: ArlegZ
Nikolaus Harnoncourt - The Complete Sony Recordings, Part 9 [6CDs] (2016)

Nikolaus Harnoncourt - The Complete Sony Recordings, Part 9 (2016)
EAC | FLAC | Image (Cue & Log) ~ 1,37 Gb | Total time: 06:06:02 | Scans included
Classical | Label: Sony Classical | # 88875173752 | Recorded: 1991-2015

Nikolaus Harnoncourt The Complete Sony Recordings brings together for the first time Harnoncourt s complete recordings from 2002-2015 with his Concentus Musicus Wien, the Wiener Philharmonike, the Chamber Orchestra of Europe and the Symphonieorchester des Bayrischen Rundfunks. The Sony Classical edition features his famous symphony recordings of Mozart, Haydn, Beethoven and Bruckner, alongside his celebrated performances of great choral works such as the Verdi, Brahms and Mozart Requiems and Haydn's Die Schöpfung, as well as Mozart's opera Zaide, Haydn's Orlando paladino and Gershwin's Porgy and Bess. Also included are previously authorized but unreleased recordings of J. S. Bach s Cantatas Nos. 26 & 36, Beethoven's Christus am Ölberge and Dvorák's Stabat Mater.

Contents:
CD 43-44: Verdi: Messa da Requiem
CD 45-46: Bruckner: Symphony No. 5
CD 47-48: Bruckner: Symphony No. 9


Verdi - Messa da requiem
CD 43: [47:13]
01. I. Requiem & Kyrie
II. Sequence: Dies irae
02. Dies irae
03. Tuba mirum
04. Liber scriptus
05. Quid sum miser
06. Rex tremendae
07. Recordare
08. Ingemisco tamquam
09. Confutatis maledictis
10. Lacrimosa
CD 44: [40:26]
III. Offertorio
01. Domine Jesu
02. Hostias
03. IV. Sanctus
04. V. Agnus Dei
05. VI. Lux aeterna
VII. Libera me
06. Libera me
07. Dies irae
08. Libera me

Eva Mei, soprano
Bernarda Fink, mezzo-soprano
Michael Schade, tenor
Ildebrando D'Arcangelo, bass
Arnold Schoenberg Chor
Wiener Philharmoniker
Nikolaus Harnoncourt, conductor


Bruckner: Symphonies Nos. 5 & 9
CD 45: [73:06]
Symphony No. 5 in B-flat major WAB 105
01. I. Introduction: Adagio - Allegro
02. II. Adagio. Sehr langsam
03. III. Scherzo. Molto vivace (Schnell) - Trio. Im gleichen Tempo
04. IV. Finale: Adagio - Allegro moderato
CD 46: [74:47]
Excerpts from the rehearsals on June 7 & 8, 2004, Musikverein, Vienna
01. Mvt. I, mm. 1-22 "Vor den Sechzehnteln bitte wegfedern!"
02. Mvt. I, mm. 161-224. "Die Synkopen so, als würden wir mit Ellenbogen gegen dieses Legato gehen…"
03. Mvt. I, mm. 315-319; 325-327; 381-398. "Kann ich einmal nur diesen kleinen, ganz schnellen Holz-Kanon haben?"
04. Mvt. II, mm. 31-38; 107-124. "Gehen wir bitte gleich zum zweiten Satz…"
05. Mvt. II, mm. 163-196; 203-211. "Von 169 bis 170, diese Harmoniefolge…"
06. Mvt. II, mm. 1-18, 39-70. "So, jetzt gehen wir zu dem Anfang von dem Satz…"
07. Mvt. II, mm. 71-84, 101-144, 195-202. "Geben Sie mir bitte einmal nur die Triolen…"
08. Mvt. III, Scherzo. mm. 1-39, 133-187. "Ich hätte gern wirklich so einen magischen Schnelltanz…"
09. Mvt. III, Scherzo. mm. 341-382; Trio, mm. 1-55. "Können Sie ein bisschen so eine oberösterreichische Melancholie hineinbringen?"
10. Mvt. III, Trio. mm. 56-149; Scherzo da capo. mm. 1-132. "Jetzt spielen Sie bitte wirklich 'Um-Pa'!"
11. Mvt. IV, mm. 1-22, 29-36, 67-82. "Es muss die ,Eins' immer sehr energisch sein…"
12. Mvt. IV, mm. 83-136, 137-165. "Tutti von ,Etwas mehr langsam'…"
13. Mvt. IV, mm. 175-210; 223-231. "Stellen Sie sich zu dem Choral einen Text vor…"
14. Mvt. IV, mm. 310-340. "Jeder von diesen Einsätzen muss klingen…"
15. Mvt. IV, mm. 362-373, 450-499, 500-635. "Schön wäre es, wenn man eine totale Ersch Erschöpfung hört…"
CD 47: [58:52]
Symphony No. 9 in D minor WAB 109
01. I. Feierlich, misterioso
02. II. Scherzo. Bewegt, lebhaft - Trio. Schnell - Scherzo da capo
03. III. Adagio. Langsam, feierlich
CD 48: [71:38]
IV. Finale (fragments)
01. Warum hat man eigentlich 100 Jahre lang gedacht, es gäbe nichts von diesem 4. Satz
02. Dokumentation, Takt 1-278
03. Gegen Ende eine extreme Dissonanz in den Trompeten
04. Nach dem Ende der Durchführung folgt eine wilde Fuge
05. Dokumentation, Takt 279-342
06. Quasi ein Schreckbild des Todes
07. Dokumentation, Takt 343-478
08. Danach fehlen 16 Takte; dazu ist nichts zu erklären; wir spielen einfach nicht
09. Dokumentation, Takt 479-510. Lücke / fehlender Partiturbogen: T. 511-526
10. Why did we think for over hundred years that nothing of this finale existed?
11. Documentation, mm. 1-278
12. Extreme dissonances in the trumpets towards the end of the block
13. At the end of the developmnet a wild fugue begins
14. Documentation, mm. 279-342
15. A sudden vision of death
16. Documentation, mm. 343-478
17. Then there are sixteen bars missing. We will just leave them out.
18. Documentation, mm. 479-510. Gap / missing score bifolio - mm. 511-226

Wiener Philharmoniker
Nikolaus Harnoncourt, conductor




Exact Audio Copy V1.6 from 23. October 2020

EAC extraction logfile from 1. August 2021, 15:19

Nikolaus Harnoncourt, Wiener Philharmoniker, Arnold Schoenberg Chor / Verdi - Messa da Requiem CD1

Used drive : PIONEER DVD-RW DVR-218L Adapter: 1 ID: 0

Read mode : Secure
Utilize accurate stream : Yes
Defeat audio cache : Yes
Make use of C2 pointers : No

Read offset correction : 6
Overread into Lead-In and Lead-Out : No
Fill up missing offset samples with silence : Yes
Delete leading and trailing silent blocks : No
Null samples used in CRC calculations : Yes
Used interface : Native Win32 interface for Win NT & 2000

Used output format : User Defined Encoder
Selected bitrate : 128 kBit/s
Quality : High
Add ID3 tag : No
Command line compressor : C:\Program Files\Exact Audio Copy\Flac\flac.exe
Additional command line options : -V -8 -T "Date=%year%" -T "Genre=%genre%" %source%


TOC of the extracted CD

Track | Start | Length | Start sector | End sector
––––––––––––––––––––––––––––-
1 | 0:00.00 | 8:36.01 | 0 | 38700
2 | 8:36.01 | 2:33.54 | 38701 | 50229
3 | 11:09.55 | 3:32.40 | 50230 | 66169
4 | 14:42.20 | 5:19.40 | 66170 | 90134
5 | 20:01.60 | 3:51.01 | 90135 | 107460
6 | 23:52.61 | 3:37.40 | 107461 | 123775
7 | 27:30.26 | 4:17.28 | 123776 | 143078
8 | 31:47.54 | 3:42.67 | 143079 | 159795
9 | 35:30.46 | 5:56.48 | 159796 | 186543
10 | 41:27.19 | 5:45.59 | 186544 | 212477


Range status and errors

Selected range

Filename C:\ArlegZ\Nikolaus Harnoncourt - Verdi - Messa da Requiem CD1.wav

Peak level 99.8 %
Extraction speed 1.7 X
Range quality 100.0 %
Test CRC 29ABCAB7
Copy CRC 29ABCAB7
Copy OK

No errors occurred


AccurateRip summary

Track 1 accurately ripped (confidence 17) [AF8E581C] (AR v2)
Track 2 accurately ripped (confidence 17) [A36CA47B] (AR v2)
Track 3 accurately ripped (confidence 17) [7623EA43] (AR v2)
Track 4 accurately ripped (confidence 17) [C94D96E0] (AR v2)
Track 5 accurately ripped (confidence 17) [285E6CE7] (AR v2)
Track 6 accurately ripped (confidence 17) [1F968314] (AR v2)
Track 7 accurately ripped (confidence 17) [0B210729] (AR v2)
Track 8 accurately ripped (confidence 17) [47B78613] (AR v2)
Track 9 accurately ripped (confidence 17) [A29E1CBC] (AR v2)
Track 10 accurately ripped (confidence 17) [53FB33B5] (AR v2)

All tracks accurately ripped

End of status report

–– CUETools DB Plugin V2.1.6

[CTDB TOCID: yVTMl.wMR_Pi1pOen88zUhbgZuI-] found
Submit result: yVTMl.wMR_Pi1pOen88zUhbgZuI- has been confirmed
Track | CTDB Status
1 | (151/152) Accurately ripped
2 | (152/152) Accurately ripped
3 | (152/152) Accurately ripped
4 | (152/152) Accurately ripped
5 | (150/152) Accurately ripped
6 | (151/152) Accurately ripped
7 | (152/152) Accurately ripped
8 | (152/152) Accurately ripped
9 | (150/152) Accurately ripped
10 | (150/152) Accurately ripped


==== Log checksum BB679ECD5409F101EFBC8F4AB07C82C8DFF7E6702E2389054F7F9B45069084F4 ====


Exact Audio Copy V1.6 from 23. October 2020

EAC extraction logfile from 1. August 2021, 16:36

Nikolaus Harnoncourt, Wiener Philharmoniker, Arnold Schoenberg Chor / Verdi - Messa da Requiem CD2

Used drive : PIONEER DVD-RW DVR-218L Adapter: 1 ID: 0

Read mode : Secure
Utilize accurate stream : Yes
Defeat audio cache : Yes
Make use of C2 pointers : No

Read offset correction : 6
Overread into Lead-In and Lead-Out : No
Fill up missing offset samples with silence : Yes
Delete leading and trailing silent blocks : No
Null samples used in CRC calculations : Yes
Used interface : Native Win32 interface for Win NT & 2000

Used output format : User Defined Encoder
Selected bitrate : 128 kBit/s
Quality : High
Add ID3 tag : No
Command line compressor : C:\Program Files\Exact Audio Copy\Flac\flac.exe
Additional command line options : -V -8 -T "Date=%year%" -T "Genre=%genre%" %source%


TOC of the extracted CD

Track | Start | Length | Start sector | End sector
––––––––––––––––––––––––––––-
1 | 0:00.00 | 4:52.27 | 0 | 21926
2 | 4:52.27 | 5:58.32 | 21927 | 48808
3 | 10:50.59 | 3:01.19 | 48809 | 62402
4 | 13:52.03 | 4:55.18 | 62403 | 84545
5 | 18:47.21 | 6:29.12 | 84546 | 113732
6 | 25:16.33 | 2:39.14 | 113733 | 125671
7 | 27:55.47 | 5:40.54 | 125672 | 151225
8 | 33:36.26 | 6:49.60 | 151226 | 181960


Range status and errors

Selected range

Filename C:\ArlegZ\Nikolaus Harnoncourt - Verdi - Messa da Requiem CD2.wav

Peak level 99.8 %
Extraction speed 1.7 X
Range quality 100.0 %
Test CRC 44892751
Copy CRC 44892751
Copy OK

No errors occurred


AccurateRip summary

Track 1 accurately ripped (confidence 16) [E04EF0CA] (AR v2)
Track 2 accurately ripped (confidence 16) [BDEB3FB9] (AR v2)
Track 3 accurately ripped (confidence 16) [705D2AFC] (AR v2)
Track 4 accurately ripped (confidence 16) [E1537AA7] (AR v2)
Track 5 accurately ripped (confidence 16) [3801B9D8] (AR v2)
Track 6 accurately ripped (confidence 16) [145D1798] (AR v2)
Track 7 accurately ripped (confidence 16) [C94B908E] (AR v2)
Track 8 accurately ripped (confidence 16) [40E5841A] (AR v2)

All tracks accurately ripped

End of status report

–– CUETools DB Plugin V2.1.6

[CTDB TOCID: _VU0ELIj7DqdUkysg47OQ3nz.HY-] found
Submit result: _VU0ELIj7DqdUkysg47OQ3nz.HY- has been confirmed, _VU0ELIj7DqdUkysg47OQ3nz.HY- has been confirmed
Track | CTDB Status
1 | (274/274) Accurately ripped
2 | (274/274) Accurately ripped
3 | (274/274) Accurately ripped
4 | (274/274) Accurately ripped
5 | (273/274) Accurately ripped
6 | (274/274) Accurately ripped
7 | (271/274) Accurately ripped
8 | (273/274) Accurately ripped


==== Log checksum 5AC8EFE7229BCD59EEAD87093CD6F8867A8CB84E96B0553308E85A405C29167E ====


Exact Audio Copy V1.6 from 23. October 2020

EAC extraction logfile from 1. August 2021, 18:05

Nikolaus Harnoncourt, Wiener Philharmoniker / Bruckner - Symphony No. 5 (I)

Used drive : PIONEER DVD-RW DVR-218L Adapter: 1 ID: 0

Read mode : Secure
Utilize accurate stream : Yes
Defeat audio cache : Yes
Make use of C2 pointers : No

Read offset correction : 6
Overread into Lead-In and Lead-Out : No
Fill up missing offset samples with silence : Yes
Delete leading and trailing silent blocks : No
Null samples used in CRC calculations : Yes
Used interface : Native Win32 interface for Win NT & 2000

Used output format : User Defined Encoder
Selected bitrate : 128 kBit/s
Quality : High
Add ID3 tag : No
Command line compressor : C:\Program Files\Exact Audio Copy\Flac\flac.exe
Additional command line options : -V -8 -T "Date=%year%" -T "Genre=%genre%" %source%


TOC of the extracted CD

Track | Start | Length | Start sector | End sector
––––––––––––––––––––––––––––-
1 | 0:00.00 | 20:34.34 | 0 | 92583
2 | 20:34.34 | 14:57.03 | 92584 | 159861
3 | 35:31.37 | 13:35.17 | 159862 | 221003
4 | 49:06.54 | 23:59.06 | 221004 | 328934


Range status and errors

Selected range

Filename C:\ArlegZ\Nikolaus Harnoncourt - Bruckner - Symphony No. 5 (I).wav

Peak level 79.4 %
Extraction speed 2.1 X
Range quality 100.0 %
Test CRC 5E0A4CE4
Copy CRC 5E0A4CE4
Copy OK

No errors occurred


AccurateRip summary

Track 1 accurately ripped (confidence 21) [40C51A5F] (AR v2)
Track 2 accurately ripped (confidence 21) [87C84A41] (AR v2)
Track 3 accurately ripped (confidence 21) [D948E761] (AR v2)
Track 4 accurately ripped (confidence 20) [778066C2] (AR v2)

All tracks accurately ripped

End of status report

–– CUETools DB Plugin V2.1.6

[CTDB TOCID: .x.NWR5S91DJyqxo_LuCMOjM8Ho-] found
Submit result: .x.NWR5S91DJyqxo_LuCMOjM8Ho- has been confirmed
Track | CTDB Status
1 | (156/157) Accurately ripped
2 | (156/157) Accurately ripped
3 | (156/157) Accurately ripped
4 | (146/157) Accurately ripped


==== Log checksum ECD360C157C18F92830D1A4AAB3E51CA383DEE434023CE035DBFE5F2B4AF5867 ====


Exact Audio Copy V1.6 from 23. October 2020

EAC extraction logfile from 1. August 2021, 20:43

Nikolaus Harnoncourt, Wiener Philharmoniker / Bruckner - Symphony No. 5 (II)

Used drive : PIONEER DVD-RW DVR-218L Adapter: 1 ID: 0

Read mode : Secure
Utilize accurate stream : Yes
Defeat audio cache : Yes
Make use of C2 pointers : No

Read offset correction : 6
Overread into Lead-In and Lead-Out : No
Fill up missing offset samples with silence : Yes
Delete leading and trailing silent blocks : No
Null samples used in CRC calculations : Yes
Used interface : Native Win32 interface for Win NT & 2000

Used output format : User Defined Encoder
Selected bitrate : 128 kBit/s
Quality : High
Add ID3 tag : No
Command line compressor : C:\Program Files\Exact Audio Copy\Flac\flac.exe
Additional command line options : -V -8 -T "Date=%year%" -T "Genre=%genre%" %source%


TOC of the extracted CD

Track | Start | Length | Start sector | End sector
––––––––––––––––––––––––––––-
1 | 0:00.00 | 2:46.29 | 0 | 12478
2 | 2:46.29 | 4:37.38 | 12479 | 33291
3 | 7:23.67 | 1:57.50 | 33292 | 42116
4 | 9:21.42 | 4:11.43 | 42117 | 60984
5 | 13:33.10 | 8:57.07 | 60985 | 101266
6 | 22:30.17 | 3:24.18 | 101267 | 116584
7 | 25:54.35 | 4:43.66 | 116585 | 137875
8 | 30:38.26 | 6:25.04 | 137876 | 166754
9 | 37:03.30 | 2:36.18 | 166755 | 178472
10 | 39:39.48 | 6:28.28 | 178473 | 207600
11 | 46:08.01 | 7:00.63 | 207601 | 239163
12 | 53:08.64 | 5:41.08 | 239164 | 264746
13 | 58:49.72 | 3:34.33 | 264747 | 280829
14 | 62:24.30 | 2:59.17 | 280830 | 294271
15 | 65:23.47 | 9:23.62 | 294272 | 336558


Range status and errors

Selected range

Filename C:\ArlegZ\Nikolaus Harnoncourt - Bruckner - Symphony No. 5 (II).wav

Peak level 98.8 %
Extraction speed 2.1 X
Range quality 100.0 %
Test CRC B9F39C47
Copy CRC B9F39C47
Copy OK

No errors occurred


AccurateRip summary

Track 1 accurately ripped (confidence 12) [B48C75F2] (AR v2)
Track 2 accurately ripped (confidence 12) [2F4D616E] (AR v2)
Track 3 accurately ripped (confidence 12) [04C1A93F] (AR v2)
Track 4 accurately ripped (confidence 12) [4E4BEF35] (AR v2)
Track 5 accurately ripped (confidence 12) [27BD0CA3] (AR v2)
Track 6 accurately ripped (confidence 12) [7861FE02] (AR v2)
Track 7 accurately ripped (confidence 12) [AAE23C26] (AR v2)
Track 8 accurately ripped (confidence 12) [F4140A79] (AR v2)
Track 9 accurately ripped (confidence 12) [37A4DE2F] (AR v2)
Track 10 accurately ripped (confidence 12) [74C4BE72] (AR v2)
Track 11 accurately ripped (confidence 12) [8E4AE86B] (AR v2)
Track 12 accurately ripped (confidence 12) [175158CC] (AR v2)
Track 13 accurately ripped (confidence 11) [BCCE82CB] (AR v2)
Track 14 accurately ripped (confidence 12) [8C878540] (AR v2)
Track 15 accurately ripped (confidence 11) [ABD3EB95] (AR v2)

All tracks accurately ripped

End of status report

–– CUETools DB Plugin V2.1.6

[CTDB TOCID: cBPyulvD1HXMVFk_.fvqCfCpvkM-] found
Submit result: cBPyulvD1HXMVFk_.fvqCfCpvkM- has been confirmed
Track | CTDB Status
1 | (94/94) Accurately ripped
2 | (94/94) Accurately ripped
3 | (94/94) Accurately ripped
4 | (94/94) Accurately ripped
5 | (94/94) Accurately ripped
6 | (94/94) Accurately ripped
7 | (93/94) Accurately ripped
8 | (93/94) Accurately ripped
9 | (93/94) Accurately ripped
10 | (93/94) Accurately ripped
11 | (94/94) Accurately ripped
12 | (93/94) Accurately ripped
13 | (94/94) Accurately ripped
14 | (93/94) Accurately ripped
15 | (91/94) Accurately ripped


==== Log checksum 5DE95DF434A44497E278A556A24A1863D072EA4DB8BDC02E0E854322819AA68B ====


Exact Audio Copy V1.6 from 23. October 2020

EAC extraction logfile from 2. August 2021, 14:54

Nikolaus Harnoncourt, Wiener Philharmoniker / Bruckner - Symphony No. 9 (I)

Used drive : PIONEER DVD-RW DVR-218L Adapter: 1 ID: 0

Read mode : Secure
Utilize accurate stream : Yes
Defeat audio cache : Yes
Make use of C2 pointers : No

Read offset correction : 6
Overread into Lead-In and Lead-Out : No
Fill up missing offset samples with silence : Yes
Delete leading and trailing silent blocks : No
Null samples used in CRC calculations : Yes
Used interface : Native Win32 interface for Win NT & 2000

Used output format : User Defined Encoder
Selected bitrate : 128 kBit/s
Quality : High
Add ID3 tag : No
Command line compressor : C:\Program Files\Exact Audio Copy\Flac\flac.exe
Additional command line options : -V -8 -T "Date=%year%" -T "Genre=%genre%" %source%


TOC of the extracted CD

Track | Start | Length | Start sector | End sector
––––––––––––––––––––––––––––-
1 | 0:00.00 | 24:17.07 | 0 | 109281
2 | 24:17.07 | 10:39.24 | 109282 | 157230
3 | 34:56.31 | 23:55.62 | 157231 | 264917


Range status and errors

Selected range

Filename C:\ArlegZ\Nikolaus Harnoncourt - Bruckner - Symphony No. 9 (I).wav

Peak level 90.6 %
Extraction speed 1.8 X
Range quality 100.0 %
Test CRC 49669E9C
Copy CRC 49669E9C
Copy OK

No errors occurred


AccurateRip summary

Track 1 accurately ripped (confidence 15) [7741853F] (AR v2)
Track 2 accurately ripped (confidence 15) [7448D605] (AR v2)
Track 3 accurately ripped (confidence 15) [892DB628] (AR v2)

All tracks accurately ripped

End of status report

–– CUETools DB Plugin V2.1.6

[CTDB TOCID: iUBCiMFpT5ZyhaXLHWqRtyDHYRw-] found
Submit result: iUBCiMFpT5ZyhaXLHWqRtyDHYRw- has been confirmed
Track | CTDB Status
1 | (186/187) Accurately ripped
2 | ( 31/187) Accurately ripped
3 | ( 31/187) Accurately ripped


==== Log checksum 063F854A8F1938E3CB87F93D0CA4E4FED5BB3DE02D634DD1776DB0FFEBCC2BC8 ====


Exact Audio Copy V1.6 from 23. October 2020

EAC extraction logfile from 2. August 2021, 16:26

Nikolaus Harnoncourt, Wiener Philharmoniker / Bruckner - Symphony No. 9 (II)

Used drive : PIONEER DVD-RW DVR-218L Adapter: 1 ID: 0

Read mode : Secure
Utilize accurate stream : Yes
Defeat audio cache : Yes
Make use of C2 pointers : No

Read offset correction : 6
Overread into Lead-In and Lead-Out : No
Fill up missing offset samples with silence : Yes
Delete leading and trailing silent blocks : No
Null samples used in CRC calculations : Yes
Used interface : Native Win32 interface for Win NT & 2000

Used output format : User Defined Encoder
Selected bitrate : 128 kBit/s
Quality : High
Add ID3 tag : No
Command line compressor : C:\Program Files\Exact Audio Copy\Flac\flac.exe
Additional command line options : -V -8 -T "Date=%year%" -T "Genre=%genre%" %source%


TOC of the extracted CD

Track | Start | Length | Start sector | End sector
––––––––––––––––––––––––––––-
1 | 0:00.00 | 11:12.69 | 0 | 50468
2 | 11:12.69 | 9:14.68 | 50469 | 92086
3 | 20:27.62 | 2:21.12 | 92087 | 102673
4 | 22:48.74 | 0:51.04 | 102674 | 106502
5 | 23:40.03 | 2:25.73 | 106503 | 117450
6 | 26:06.01 | 1:52.56 | 117451 | 125906
7 | 27:58.57 | 4:45.00 | 125907 | 147281
8 | 32:43.57 | 1:48.39 | 147282 | 155420
9 | 34:32.21 | 1:42.15 | 155421 | 163085
10 | 36:14.36 | 10:51.52 | 163086 | 211962
11 | 47:06.13 | 9:15.19 | 211963 | 253606
12 | 56:21.32 | 2:24.61 | 253607 | 264467
13 | 58:46.18 | 0:40.74 | 264468 | 267541
14 | 59:27.17 | 2:24.47 | 267542 | 278388
15 | 61:51.64 | 1:46.59 | 278389 | 286397
16 | 63:38.48 | 4:43.27 | 286398 | 307649
17 | 68:22.00 | 1:39.46 | 307650 | 315120
18 | 70:01.46 | 1:36.40 | 315121 | 322360


Range status and errors

Selected range

Filename C:\ArlegZ\Nikolaus Harnoncourt - Bruckner - Symphony No. 9 (II).wav

Peak level 95.4 %
Extraction speed 2.1 X
Range quality 100.0 %
Test CRC 223ABA18
Copy CRC 223ABA18
Copy OK

No errors occurred


AccurateRip summary

Track 1 accurately ripped (confidence 13) [60D66F41] (AR v2)
Track 2 accurately ripped (confidence 13) [A4B51F6C] (AR v2)
Track 3 accurately ripped (confidence 13) [4C8B897C] (AR v2)
Track 4 accurately ripped (confidence 13) [8FE9EE29] (AR v2)
Track 5 accurately ripped (confidence 13) [6B0C180F] (AR v2)
Track 6 accurately ripped (confidence 13) [1DD7CE67] (AR v2)
Track 7 accurately ripped (confidence 12) [3D5BFF32] (AR v2)
Track 8 accurately ripped (confidence 13) [FA3650C0] (AR v2)
Track 9 accurately ripped (confidence 13) [D836CB02] (AR v2)
Track 10 accurately ripped (confidence 13) [DC5F9E31] (AR v2)
Track 11 accurately ripped (confidence 13) [193A6FF3] (AR v2)
Track 12 accurately ripped (confidence 13) [48DCA4AC] (AR v2)
Track 13 accurately ripped (confidence 13) [C41D560B] (AR v2)
Track 14 accurately ripped (confidence 13) [AEDAEE54] (AR v2)
Track 15 accurately ripped (confidence 13) [C7B49471] (AR v2)
Track 16 accurately ripped (confidence 13) [34A6F9AC] (AR v2)
Track 17 accurately ripped (confidence 13) [D86EE0F0] (AR v2)
Track 18 accurately ripped (confidence 13) [5C5D7231] (AR v2)

All tracks accurately ripped

End of status report

–– CUETools DB Plugin V2.1.6

[CTDB TOCID: ejOwAkR_UpwKYHEovwhmvEp.Dog-] found
Submit result: ejOwAkR_UpwKYHEovwhmvEp.Dog- has been confirmed
Track | CTDB Status
1 | (124/125) Accurately ripped
2 | (123/125) Accurately ripped
3 | (124/125) Accurately ripped
4 | (125/125) Accurately ripped
5 | (125/125) Accurately ripped
6 | (125/125) Accurately ripped
7 | (125/125) Accurately ripped
8 | (125/125) Accurately ripped
9 | (125/125) Accurately ripped
10 | (123/125) Accurately ripped
11 | (122/125) Accurately ripped
12 | (123/125) Accurately ripped
13 | (125/125) Accurately ripped
14 | (124/125) Accurately ripped
15 | (122/125) Accurately ripped
16 | (124/125) Accurately ripped
17 | (123/125) Accurately ripped
18 | (122/125) Accurately ripped


==== Log checksum D7335287F6E1C8BE4CECC629E61A4607BBE3EF56BC95EEE808FB9DB2A5A96A97 ====


Nikolaus Harnoncourt - The Complete Sony Recordings, Part 9 [6CDs] (2016)