Tags
Language
Tags

Nils Petter Molvaer - Er (2005) {Universal}

Posted By: tiburon
Nils Petter Molvaer - Er (2005) {Universal}

Nils Petter Molvaer - Er (2005) {Universal}
EAC 0.99pb4 | FLAC tracks level 8 | Cue+Log+M3U | Full Scans 300dpi | 299MB + 5% Recovery
MP3 CBR 320 Kbps | 105MB + 5% Recovery
Genre: Jazz, Experimental, Ambient
Nils Petter Molvaer - Er (2005) {Universal}

Norwegian trumpeter Nils Petter Molvær made his small mark on fans and critics alike in the United States with his fine pair of ECM recordings. After a couple of years working in Europe, he returned to the release scene in the U.S. with An American Compilation in June of 2006. That disc was a selection of tracks from this album, his remix disc, and live cuts of tunes from the ECM period. In fact, ER is being issued simultaneously with Streamer, the live CD.
Track List
01. Hover 7:22
02. Softer 5:15
03. Water 6:20
04. Only These Things Count 6:03
05. Sober 3:26
06. Darker 5:20
07. Feeder 4:28
08. Dancer 7:52

musicians
Nils Petter Molvær - trumpet, bass, keyboards
Eivind Aarset - guitar
Rune Arnesen - drums, percussion
Strangefruit - vinyl effects
Jan Bang - sampler
Sidsel Endresen - voice
Elin Rosseland - voice
Ingebrigt Håker Flaten - double bass
Knut Sævik - programming
Erik Honoré - keyboards
Magne Furuholmen - piano
Helge Norbakken - percussion

Produced by Nils Petter Molvaer


Exact Audio Copy V0.99 prebeta 4 from 23. January 2008

EAC extraction logfile from 22. March 2009, 14:57

Nils Petter Molvaer / Er

Used drive : PIONEER DVD-RW DVR-110D Adapter: 0 ID: 0

Read mode : Secure
Utilize accurate stream : Yes
Defeat audio cache : Yes
Make use of C2 pointers : No

Read offset correction : 48
Overread into Lead-In and Lead-Out : No
Fill up missing offset samples with silence : Yes
Delete leading and trailing silent blocks : No
Null samples used in CRC calculations : Yes
Used interface : Installed external ASPI interface
Gap handling : Appended to previous track

Used output format : User Defined Encoder
Selected bitrate : 768 kBit/s
Quality : High
Add ID3 tag : No
Command line compressor : C:\Program Files\Exact Audio Copy\FLAC\FLAC.EXE
Additional command line options : -8 -V -T "ARTIST=%a" -T "TITLE=%t" -T "ALBUM=%g" -T "DATE=%y" -T "TRACKNUMBER=%n" -T "GENRE=%m" -T "COMMENT=%e" %s -o %d


TOC of the extracted CD

Track | Start | Length | Start sector | End sector
––––––––––––––––––––––––––––-
1 | 0:00.00 | 7:22.06 | 0 | 33155
2 | 7:22.06 | 5:14.56 | 33156 | 56761
3 | 12:36.62 | 6:20.28 | 56762 | 85289
4 | 18:57.15 | 6:03.22 | 85290 | 112536
5 | 25:00.37 | 3:25.60 | 112537 | 127971
6 | 28:26.22 | 5:20.16 | 127972 | 151987
7 | 33:46.38 | 4:28.37 | 151988 | 172124
8 | 38:15.00 | 7:52.27 | 172125 | 207551


Track 1

Filename C:\Kyryan\Razdacha\Nils Petter Molvaer - Er (2005) [FLAC] {Sula Records 460502600733}\01. Hover.wav

Pre-gap length 0:00:02.00

Peak level 97.7 %
Track quality 100.0 %
Test CRC DC9474F5
Copy CRC DC9474F5
Accurately ripped (confidence 17) [C508B221]
Copy OK

Track 2

Filename C:\Kyryan\Razdacha\Nils Petter Molvaer - Er (2005) [FLAC] {Sula Records 460502600733}\02. Softer.wav

Peak level 97.3 %
Track quality 100.0 %
Test CRC FA3E383C
Copy CRC FA3E383C
Accurately ripped (confidence 18) [60D48B6A]
Copy OK

Track 3

Filename C:\Kyryan\Razdacha\Nils Petter Molvaer - Er (2005) [FLAC] {Sula Records 460502600733}\03. Water.wav

Peak level 97.7 %
Track quality 100.0 %
Test CRC AAC02E95
Copy CRC AAC02E95
Accurately ripped (confidence 18) [F0582532]
Copy OK

Track 4

Filename C:\Kyryan\Razdacha\Nils Petter Molvaer - Er (2005) [FLAC] {Sula Records 460502600733}\04. Only These Things Count.wav

Peak level 97.3 %
Track quality 100.0 %
Test CRC 140AFFE1
Copy CRC 140AFFE1
Accurately ripped (confidence 18) [EA38D37B]
Copy OK

Track 5

Filename C:\Kyryan\Razdacha\Nils Petter Molvaer - Er (2005) [FLAC] {Sula Records 460502600733}\05. Sober.wav

Peak level 92.3 %
Track quality 100.0 %
Test CRC D2B03E4F
Copy CRC D2B03E4F
Accurately ripped (confidence 18) [46AE1CF0]
Copy OK

Track 6

Filename C:\Kyryan\Razdacha\Nils Petter Molvaer - Er (2005) [FLAC] {Sula Records 460502600733}\06. Darker.wav

Peak level 97.7 %
Track quality 100.0 %
Test CRC F99A1363
Copy CRC F99A1363
Accurately ripped (confidence 18) [57CAAC2F]
Copy OK

Track 7

Filename C:\Kyryan\Razdacha\Nils Petter Molvaer - Er (2005) [FLAC] {Sula Records 460502600733}\07. Feeder.wav

Peak level 97.6 %
Track quality 100.0 %
Test CRC 6627A027
Copy CRC 6627A027
Accurately ripped (confidence 17) [EDB6DFA8]
Copy OK

Track 8

Filename C:\Kyryan\Razdacha\Nils Petter Molvaer - Er (2005) [FLAC] {Sula Records 460502600733}\08. Dancer.wav

Peak level 97.7 %
Track quality 100.0 %
Test CRC A9935EB3
Copy CRC A9935EB3
Accurately ripped (confidence 18) [482F468A]
Copy OK


All tracks accurately ripped

No errors occurred

End of status report


––––––––––––––––––––––––––––––––––––––––
Analyzed: Nils Petter Molvaer / Er
––––––––––––––––––––––––––––––––––––––––

DR Peak RMS Duration Track
––––––––––––––––––––––––––––––––––––––––
DR8 -0.20 dB -11.72 dB 7:22 01-Hover
DR8 -0.23 dB -11.80 dB 5:15 02-Softer
DR8 -0.20 dB -11.84 dB 6:20 03-Water
DR9 -0.23 dB -11.90 dB 6:03 04-Only These Things Count
DR10 -0.69 dB -13.99 dB 3:26 05-Sober
DR8 -0.20 dB -10.87 dB 5:20 06-Darker
DR8 -0.20 dB -11.22 dB 4:28 07-Feeder
DR9 -0.20 dB -11.08 dB 7:52 08-Dancer
––––––––––––––––––––––––––––––––––––––––

Number of tracks: 8
Official DR value: DR8

Samplerate: 44100 Hz
Channels: 2
Bits per sample: 16
Bitrate: 856 kbps
Codec: FLAC
================================================================================

Nils Petter Molvaer - Er (2005) {Universal}
Nils Petter Molvaer - Er (2005) {Universal}
Nils Petter Molvaer - Er (2005) {Universal}


Thanks to the original ripper