Tags
Language
Tags

Nine Inch Nails - The Fragile (1999) [2006, Interscope UICY-6161/2, Japan]

Posted By: v3122
Nine Inch Nails - The Fragile (1999) [2006, Interscope UICY-6161/2, Japan]

Nine Inch Nails - The Fragile (1999)
XLD | Flac(Image) + Cue + Log & MP3 CBR 320Kbps
2CD | Interscope UICY-6161/2 | ~ 661 or 249 Mb | Scans(jpg) -> 62 Mb
Alternative Rock, Industrial, Ambient

As the double-disc The Fragile unfurls, all of Nine Inch Nails' trademarks – gargantuan, processed guitars, ominous electro rhythms, near-ambient keyboards, Trent Reznor's shredded vocals and tortured words – are unveiled, all sounding pretty much how they did on The Downward Spiral. Upon closer inspection, there are new frills, yet these aren't apparent without digging – and what's on the surface isn't necessarily inviting, either. There is nothing as rhythmic or catchy as "Closer," nothing as jarring as the piano chorus of "March of the Pigs," no ballad as naked as "Hurt." When Reznor does try for something immediate and visceral, he sounds recycled. Fortunately, The Fragile lives up to its title once the first disc is over. There are some detours into noisy bluster (some, like the Marilyn Manson dis "Starfuckers, Inc.," work quite well) but they're surrounded by long, evocative instrumental sections that highlight Reznor's gifts for arrangement. Whenever Reznor crafts delicate, alternately haunting and pretty soundscapes or interesting sonic juxtapositions, The Fragile is compelling. Since they provide a change of pace, the bursts of industrial noise assist the flow of the album, which never feels indulgent, even though it runs over 100 minutes. Still, The Fragile is ultimately a letdown. There's no denying that it's often gripping, offering odd and interesting variations on NIN themes, but that's the problem – they're just variations, not progressions. Considering that it arrives five years after Spiral, that is a disappointment. It's easy to tell where the time went – Reznor's music is immaculately crafted and arranged, with every note and nuance gliding into the next – but he spent more time constructing surfaces than songs. Those surfaces can be enticing but since it's just surface, The Fragile winds up being vaguely unsatisfying.

by Stephen Thomas Erlewine, allmusic
Nine Inch Nails - The Fragile (1999):

Nine Inch Nails - The Fragile (1999) [2006, Interscope UICY-6161/2, Japan]

Tracklist CD1 - Left:

1. "Somewhat Damaged" - 4:31
2. "The Day the World Went Away" - 4:33
3. "The Frail" - 1:54
4. "The Wretched" - 5:25
5. "We're in This Together" - 7:16
6. "The Fragile" - 4:35
7. "Just Like You Imagined" - 3:49
8. "Even Deeper" - 5:48
9. "Pilgrimage" - 3:31
10. "No, You Don't" - 3:35
11. "La Mer" - 4:37
12. "The Great Below" - 5:17

Converted to Image (CUETools 2.1.4)

X Lossless Decoder version 20100323 (116.7)

XLD extraction logfile from 2010-04-09 16:26:22 +0600

NINE INCH NAILS / THE FRAGILE [Disc 1:] <LEFT>

Used drive : OPTIARC DVD RW AD-5670S (revision 2AHH)

Use cdparanoia mode : YES (CDParanoia III 10.2 engine)
Disable audio cache : OK for the drive with cache less than 2750KB
Make use of C2 pointers : NO
Read offset correction : 48
Max retry count : 100

TOC of the extracted CD
Track | Start | Length | Start sector | End sector
––––––––––––––––––––––––––––-
1 | 00:00:00 | 04:32:30 | 0 | 20429
2 | 04:32:30 | 04:33:47 | 20430 | 40951
3 | 09:06:02 | 01:54:05 | 40952 | 49506
4 | 11:00:07 | 05:25:68 | 49507 | 73949
5 | 16:26:00 | 07:16:00 | 73950 | 106649
6 | 23:42:00 | 04:35:32 | 106650 | 127306
7 | 28:17:32 | 03:49:65 | 127307 | 144546
8 | 32:07:22 | 05:47:70 | 144547 | 170641
9 | 37:55:17 | 03:31:73 | 170642 | 186539
10 | 41:27:15 | 03:35:65 | 186540 | 202729
11 | 45:03:05 | 04:37:70 | 202730 | 223574
12 | 49:41:00 | 05:15:00 | 223575 | 247199


Track 01
Filename : /Users/gubarenko/Desktop/NINE INCH NAILS - THE FRAGILE [Disc 1:] <LEFT>/01 - Somewhat Damaged.flac

Pre-gap length : 00:02:00

CRC32 hash (test run) : 12DFA5E6
CRC32 hash : 12DFA5E6
CRC32 hash (skip zero) : 4884937A
AccurateRip signature : BACFE91F
->Accurately ripped! (confidence 4)
Statistics
Read error : 0
Skipped (treated as error) : 0
Edge jitter error (maybe fixed) : 0
Atom jitter error (maybe fixed) : 0
Drift error (maybe fixed) : 0
Dropped bytes error (maybe fixed) : 0
Duplicated bytes error (maybe fixed) : 0
Inconsistency in error sectors : 0

Track 02
Filename : /Users/gubarenko/Desktop/NINE INCH NAILS - THE FRAGILE [Disc 1:] <LEFT>/02 - The Day The World Went Away.flac

CRC32 hash (test run) : EF9A6C68
CRC32 hash : EF9A6C68
CRC32 hash (skip zero) : 3B8F80D7
AccurateRip signature : 12C4782C
->Accurately ripped! (confidence 4)
Statistics
Read error : 0
Skipped (treated as error) : 0
Edge jitter error (maybe fixed) : 0
Atom jitter error (maybe fixed) : 0
Drift error (maybe fixed) : 0
Dropped bytes error (maybe fixed) : 0
Duplicated bytes error (maybe fixed) : 0
Inconsistency in error sectors : 0

Track 03
Filename : /Users/gubarenko/Desktop/NINE INCH NAILS - THE FRAGILE [Disc 1:] <LEFT>/03 - The Frail.flac

CRC32 hash (test run) : 650ADB70
CRC32 hash : 650ADB70
CRC32 hash (skip zero) : 08FA04CE
AccurateRip signature : C41996CD
->Accurately ripped! (confidence 4)
Statistics
Read error : 0
Skipped (treated as error) : 0
Edge jitter error (maybe fixed) : 0
Atom jitter error (maybe fixed) : 0
Drift error (maybe fixed) : 0
Dropped bytes error (maybe fixed) : 0
Duplicated bytes error (maybe fixed) : 0
Inconsistency in error sectors : 0

Track 04
Filename : /Users/gubarenko/Desktop/NINE INCH NAILS - THE FRAGILE [Disc 1:] <LEFT>/04 - The Wretched.flac

CRC32 hash (test run) : 0325FEC6
CRC32 hash : 0325FEC6
CRC32 hash (skip zero) : 13F4137B
AccurateRip signature : 9901DC66
->Accurately ripped! (confidence 4)
Statistics
Read error : 0
Skipped (treated as error) : 0
Edge jitter error (maybe fixed) : 0
Atom jitter error (maybe fixed) : 0
Drift error (maybe fixed) : 0
Dropped bytes error (maybe fixed) : 0
Duplicated bytes error (maybe fixed) : 0
Inconsistency in error sectors : 0

Track 05
Filename : /Users/gubarenko/Desktop/NINE INCH NAILS - THE FRAGILE [Disc 1:] <LEFT>/05 - We're In This Together.flac

CRC32 hash (test run) : C27BB395
CRC32 hash : C27BB395
CRC32 hash (skip zero) : 152AE734
AccurateRip signature : 8DEB770B
->Accurately ripped! (confidence 4)
Statistics
Read error : 0
Skipped (treated as error) : 0
Edge jitter error (maybe fixed) : 1
Atom jitter error (maybe fixed) : 1
Drift error (maybe fixed) : 0
Dropped bytes error (maybe fixed) : 0
Duplicated bytes error (maybe fixed) : 1
Inconsistency in error sectors : 0

Track 06
Filename : /Users/gubarenko/Desktop/NINE INCH NAILS - THE FRAGILE [Disc 1:] <LEFT>/06 - The Fragile.flac

CRC32 hash (test run) : 4EA8DC85
CRC32 hash : 4EA8DC85
CRC32 hash (skip zero) : A0C1FA7F
AccurateRip signature : B07DB83E
->Accurately ripped! (confidence 4)
Statistics
Read error : 0
Skipped (treated as error) : 0
Edge jitter error (maybe fixed) : 0
Atom jitter error (maybe fixed) : 0
Drift error (maybe fixed) : 0
Dropped bytes error (maybe fixed) : 0
Duplicated bytes error (maybe fixed) : 0
Inconsistency in error sectors : 0

Track 07
Filename : /Users/gubarenko/Desktop/NINE INCH NAILS - THE FRAGILE [Disc 1:] <LEFT>/07 - Just Like You Imagined.flac

CRC32 hash (test run) : 3A0E2ED0
CRC32 hash : 3A0E2ED0
CRC32 hash (skip zero) : 4C0BACEF
AccurateRip signature : DD4134AD
->Accurately ripped! (confidence 4)
Statistics
Read error : 0
Skipped (treated as error) : 0
Edge jitter error (maybe fixed) : 0
Atom jitter error (maybe fixed) : 0
Drift error (maybe fixed) : 0
Dropped bytes error (maybe fixed) : 0
Duplicated bytes error (maybe fixed) : 0
Inconsistency in error sectors : 0

Track 08
Filename : /Users/gubarenko/Desktop/NINE INCH NAILS - THE FRAGILE [Disc 1:] <LEFT>/08 - Even Deeper.flac

CRC32 hash (test run) : 6AE89A0A
CRC32 hash : 6AE89A0A
CRC32 hash (skip zero) : D00DE3D2
AccurateRip signature : E53DEF1B
->Accurately ripped! (confidence 4)
Statistics
Read error : 0
Skipped (treated as error) : 0
Edge jitter error (maybe fixed) : 0
Atom jitter error (maybe fixed) : 0
Drift error (maybe fixed) : 0
Dropped bytes error (maybe fixed) : 0
Duplicated bytes error (maybe fixed) : 0
Inconsistency in error sectors : 0

Track 09
Filename : /Users/gubarenko/Desktop/NINE INCH NAILS - THE FRAGILE [Disc 1:] <LEFT>/09 - Pilgrimage.flac

CRC32 hash (test run) : A6075E22
CRC32 hash : A6075E22
CRC32 hash (skip zero) : 271B2C86
AccurateRip signature : 16037D24
->Accurately ripped! (confidence 4)
Statistics
Read error : 0
Skipped (treated as error) : 0
Edge jitter error (maybe fixed) : 0
Atom jitter error (maybe fixed) : 0
Drift error (maybe fixed) : 0
Dropped bytes error (maybe fixed) : 0
Duplicated bytes error (maybe fixed) : 0
Inconsistency in error sectors : 0

Track 10
Filename : /Users/gubarenko/Desktop/NINE INCH NAILS - THE FRAGILE [Disc 1:] <LEFT>/10 - No, You Don't.flac

CRC32 hash (test run) : A7EC4B1A
CRC32 hash : A7EC4B1A
CRC32 hash (skip zero) : B5C2EA59
AccurateRip signature : 9EE33460
->Accurately ripped! (confidence 4)
Statistics
Read error : 0
Skipped (treated as error) : 0
Edge jitter error (maybe fixed) : 0
Atom jitter error (maybe fixed) : 0
Drift error (maybe fixed) : 0
Dropped bytes error (maybe fixed) : 0
Duplicated bytes error (maybe fixed) : 0
Inconsistency in error sectors : 0

Track 11
Filename : /Users/gubarenko/Desktop/NINE INCH NAILS - THE FRAGILE [Disc 1:] <LEFT>/11 - La Mer.flac

CRC32 hash (test run) : D8A640D9
CRC32 hash : D8A640D9
CRC32 hash (skip zero) : CEBC7D77
AccurateRip signature : 662643D2
->Accurately ripped! (confidence 4)
Statistics
Read error : 0
Skipped (treated as error) : 0
Edge jitter error (maybe fixed) : 0
Atom jitter error (maybe fixed) : 0
Drift error (maybe fixed) : 0
Dropped bytes error (maybe fixed) : 0
Duplicated bytes error (maybe fixed) : 0
Inconsistency in error sectors : 0

Track 12
Filename : /Users/gubarenko/Desktop/NINE INCH NAILS - THE FRAGILE [Disc 1:] <LEFT>/12 - The Great Below.flac

CRC32 hash (test run) : 6D0DD2A6
CRC32 hash : 6D0DD2A6
CRC32 hash (skip zero) : 5605BED4
AccurateRip signature : E20C10FE
->Accurately ripped! (confidence 4)
Statistics
Read error : 0
Skipped (treated as error) : 0
Edge jitter error (maybe fixed) : 0
Atom jitter error (maybe fixed) : 0
Drift error (maybe fixed) : 0
Dropped bytes error (maybe fixed) : 0
Duplicated bytes error (maybe fixed) : 0
Inconsistency in error sectors : 0

No errors occurred

End of status report


[CUETools log; Date: 14.06.2018 15:50:37; Version: 2.1.5]
[AccurateRip ID: 001852ae-00e41144-cd0ce00c] found.
Track [ CRC | V2 ] Status
01 [bacfe91f|0cf30914] (16+25/41) Accurately ripped
02 [12c4782c|9a017b86] (17+25/42) Accurately ripped
03 [c41996cd|3468dd0e] (17+25/42) Accurately ripped
04 [9901dc66|2c8fb1c8] (17+25/42) Accurately ripped
05 [8deb770b|a1eff4aa] (17+25/42) Accurately ripped
06 [b07db83e|98d316f2] (17+25/42) Accurately ripped
07 [dd4134ad|3be30dc1] (17+25/42) Accurately ripped
08 [e53def1b|a664cad8] (17+25/42) Accurately ripped
09 [16037d24|92aeb786] (17+25/42) Accurately ripped
10 [9ee33460|8fac70be] (17+25/42) Accurately ripped
11 [662643d2|b2e3e1b5] (17+25/42) Accurately ripped
12 [e20c10fe|fce7b053] (17+25/42) Accurately ripped

Track Peak [ CRC32 ] [W/O NULL]
– 100,0 [795EF367] [277DBC33]
01 81,8 [12DFA5E6] [4884937A]
02 97,5 [EF9A6C68] [3B8F80D7]
03 42,4 [650ADB70] [08FA04CE]
04 97,2 [0325FEC6] [13F4137B]
05 100,0 [C27BB395] [152AE734]
06 97,2 [4EA8DC85] [A0C1FA7F]
07 93,9 [3A0E2ED0] [4C0BACEF]
08 100,0 [6AE89A0A] [D00DE3D2]
09 97,4 [A6075E22] [271B2C86]
10 100,0 [A7EC4B1A] [B5C2EA59]
11 97,2 [D8A640D9] [CEBC7D77]
12 86,7 [6D0DD2A6] [5605BED4]


Nine Inch Nails - The Fragile (1999) [2006, Interscope UICY-6161/2, Japan]

Tracklist CD2 - Right:

1. "The Way Out Is Through" - 4:17
2. "Into the Void" - 4:49
3. "Where Is Everybody?" - 5:40
4. "The Mark Has Been Made" - 5:15
5. "Please" - 3:30
6. "Starfuckers, Inc." - 5:00
7. "Complication" - 2:30
8. "I'm Looking Forward to Joining You, Finally" - 4:13
9. "The Big Come Down" - 4:12
10. "Underneath It All" - 2:46
11. "Ripe (With Decay)" - 6:34

Converted to Image (CUETools 2.1.4)

X Lossless Decoder version 20100323 (116.7)

XLD extraction logfile from 2010-04-09 16:51:18 +0600

Nine Inch Nails / The Fragile (Disc-2: Right)

Used drive : OPTIARC DVD RW AD-5670S (revision 2AHH)

Use cdparanoia mode : YES (CDParanoia III 10.2 engine)
Disable audio cache : OK for the drive with cache less than 2750KB
Make use of C2 pointers : NO
Read offset correction : 48
Max retry count : 100

TOC of the extracted CD
Track | Start | Length | Start sector | End sector
––––––––––––––––––––––––––––-
1 | 00:00:00 | 04:18:10 | 0 | 19359
2 | 04:18:10 | 04:49:22 | 19360 | 41056
3 | 09:07:32 | 05:40:13 | 41057 | 66569
4 | 14:47:45 | 05:15:25 | 66570 | 90219
5 | 20:02:70 | 03:30:42 | 90220 | 106011
6 | 23:33:37 | 05:00:15 | 106012 | 128526
7 | 28:33:52 | 02:30:60 | 128527 | 139836
8 | 31:04:37 | 04:12:43 | 139837 | 158779
9 | 35:17:05 | 04:13:47 | 158780 | 177801
10 | 39:30:52 | 02:45:73 | 177802 | 190249
11 | 42:16:50 | 06:34:72 | 190250 | 219871


Track 01
Filename : /Users/gubarenko/Desktop/Nine Inch Nails - The Fragile (Disc-2: Right)/01 - The Way Out Is Through.flac

Pre-gap length : 00:02:00

CRC32 hash (test run) : 0400756A
CRC32 hash : 0400756A
CRC32 hash (skip zero) : BB2ACDDA
AccurateRip signature : 8B52EA95
->Accurately ripped! (confidence 4)
Statistics
Read error : 0
Skipped (treated as error) : 0
Edge jitter error (maybe fixed) : 0
Atom jitter error (maybe fixed) : 0
Drift error (maybe fixed) : 0
Dropped bytes error (maybe fixed) : 0
Duplicated bytes error (maybe fixed) : 0
Inconsistency in error sectors : 0

Track 02
Filename : /Users/gubarenko/Desktop/Nine Inch Nails - The Fragile (Disc-2: Right)/02 - Into The Void.flac

CRC32 hash (test run) : E9AA7E75
CRC32 hash : E9AA7E75
CRC32 hash (skip zero) : C0885969
AccurateRip signature : 4B78771F
->Accurately ripped! (confidence 4)
Statistics
Read error : 0
Skipped (treated as error) : 0
Edge jitter error (maybe fixed) : 0
Atom jitter error (maybe fixed) : 0
Drift error (maybe fixed) : 0
Dropped bytes error (maybe fixed) : 0
Duplicated bytes error (maybe fixed) : 0
Inconsistency in error sectors : 0

Track 03
Filename : /Users/gubarenko/Desktop/Nine Inch Nails - The Fragile (Disc-2: Right)/03 - Where Is Everybody?.flac

CRC32 hash (test run) : 2BC146F0
CRC32 hash : 2BC146F0
CRC32 hash (skip zero) : 3E195AE7
AccurateRip signature : 283ECB97
->Accurately ripped! (confidence 4)
Statistics
Read error : 0
Skipped (treated as error) : 0
Edge jitter error (maybe fixed) : 0
Atom jitter error (maybe fixed) : 0
Drift error (maybe fixed) : 0
Dropped bytes error (maybe fixed) : 0
Duplicated bytes error (maybe fixed) : 0
Inconsistency in error sectors : 0

Track 04
Filename : /Users/gubarenko/Desktop/Nine Inch Nails - The Fragile (Disc-2: Right)/04 - The Mark Has Been Made.flac

CRC32 hash (test run) : 17A490BC
CRC32 hash : 17A490BC
CRC32 hash (skip zero) : E639803A
AccurateRip signature : 44567ED5
->Accurately ripped! (confidence 4)
Statistics
Read error : 0
Skipped (treated as error) : 0
Edge jitter error (maybe fixed) : 0
Atom jitter error (maybe fixed) : 0
Drift error (maybe fixed) : 0
Dropped bytes error (maybe fixed) : 0
Duplicated bytes error (maybe fixed) : 0
Inconsistency in error sectors : 0

Track 05
Filename : /Users/gubarenko/Desktop/Nine Inch Nails - The Fragile (Disc-2: Right)/05 - Please.flac

Pre-gap length : 00:31:04

CRC32 hash (test run) : 45AD8B6D
CRC32 hash : 45AD8B6D
CRC32 hash (skip zero) : 7095EBD8
AccurateRip signature : 84F3913A
->Accurately ripped! (confidence 4)
Statistics
Read error : 0
Skipped (treated as error) : 0
Edge jitter error (maybe fixed) : 1
Atom jitter error (maybe fixed) : 0
Drift error (maybe fixed) : 0
Dropped bytes error (maybe fixed) : 1
Duplicated bytes error (maybe fixed) : 1
Inconsistency in error sectors : 0

Track 06
Filename : /Users/gubarenko/Desktop/Nine Inch Nails - The Fragile (Disc-2: Right)/06 - Starfuckers, Inc..flac

CRC32 hash (test run) : 34C30325
CRC32 hash : 34C30325
CRC32 hash (skip zero) : 996D50E4
AccurateRip signature : 1106FEF2
->Accurately ripped! (confidence 4)
Statistics
Read error : 0
Skipped (treated as error) : 0
Edge jitter error (maybe fixed) : 0
Atom jitter error (maybe fixed) : 0
Drift error (maybe fixed) : 0
Dropped bytes error (maybe fixed) : 0
Duplicated bytes error (maybe fixed) : 0
Inconsistency in error sectors : 0

Track 07
Filename : /Users/gubarenko/Desktop/Nine Inch Nails - The Fragile (Disc-2: Right)/07 - Complication.flac

CRC32 hash (test run) : AC092F6B
CRC32 hash : AC092F6B
CRC32 hash (skip zero) : EEA48758
AccurateRip signature : EBA3B1B9
->Accurately ripped! (confidence 4)
Statistics
Read error : 0
Skipped (treated as error) : 0
Edge jitter error (maybe fixed) : 0
Atom jitter error (maybe fixed) : 0
Drift error (maybe fixed) : 0
Dropped bytes error (maybe fixed) : 0
Duplicated bytes error (maybe fixed) : 0
Inconsistency in error sectors : 0

Track 08
Filename : /Users/gubarenko/Desktop/Nine Inch Nails - The Fragile (Disc-2: Right)/08 - I'm Looking Forward To Joining You, Finally.flac

CRC32 hash (test run) : DF284F0E
CRC32 hash : DF284F0E
CRC32 hash (skip zero) : 9B0E4D66
AccurateRip signature : EA134182
->Accurately ripped! (confidence 4)
Statistics
Read error : 0
Skipped (treated as error) : 0
Edge jitter error (maybe fixed) : 0
Atom jitter error (maybe fixed) : 0
Drift error (maybe fixed) : 0
Dropped bytes error (maybe fixed) : 0
Duplicated bytes error (maybe fixed) : 0
Inconsistency in error sectors : 0

Track 09
Filename : /Users/gubarenko/Desktop/Nine Inch Nails - The Fragile (Disc-2: Right)/09 - The Big Come Down.flac

CRC32 hash (test run) : E0BD1754
CRC32 hash : E0BD1754
CRC32 hash (skip zero) : C3D0918A
AccurateRip signature : 013C994D
->Accurately ripped! (confidence 4)
Statistics
Read error : 0
Skipped (treated as error) : 0
Edge jitter error (maybe fixed) : 1
Atom jitter error (maybe fixed) : 0
Drift error (maybe fixed) : 0
Dropped bytes error (maybe fixed) : 1
Duplicated bytes error (maybe fixed) : 0
Inconsistency in error sectors : 0

Track 10
Filename : /Users/gubarenko/Desktop/Nine Inch Nails - The Fragile (Disc-2: Right)/10 - Underneath It All.flac

CRC32 hash (test run) : C6BDF12D
CRC32 hash : C6BDF12D
CRC32 hash (skip zero) : 882A3750
AccurateRip signature : A0296AED
->Accurately ripped! (confidence 4)
Statistics
Read error : 0
Skipped (treated as error) : 0
Edge jitter error (maybe fixed) : 0
Atom jitter error (maybe fixed) : 0
Drift error (maybe fixed) : 0
Dropped bytes error (maybe fixed) : 0
Duplicated bytes error (maybe fixed) : 0
Inconsistency in error sectors : 0

Track 11
Filename : /Users/gubarenko/Desktop/Nine Inch Nails - The Fragile (Disc-2: Right)/11 - Ripe (With Decay).flac

Pre-gap length : 00:01:57

CRC32 hash (test run) : 8D7DA51A
CRC32 hash : 8D7DA51A
CRC32 hash (skip zero) : 6BAEC47A
AccurateRip signature : 3CA083A8
->Accurately ripped! (confidence 4)
Statistics
Read error : 0
Skipped (treated as error) : 0
Edge jitter error (maybe fixed) : 0
Atom jitter error (maybe fixed) : 0
Drift error (maybe fixed) : 0
Dropped bytes error (maybe fixed) : 0
Duplicated bytes error (maybe fixed) : 0
Inconsistency in error sectors : 0

No errors occurred

End of status report


[CUETools log; Date: 14.06.2018 15:53:51; Version: 2.1.5]
[AccurateRip ID: 00146baf-00af0c6f-970b730b] found.
Track [ CRC | V2 ] Status
01 [8b52ea95|9ecb114b] (16+24/40) Accurately ripped
02 [4b78771f|d9d709ee] (17+24/41) Accurately ripped
03 [283ecb97|44450c9b] (17+24/41) Accurately ripped
04 [44567ed5|d89dcb9e] (17+24/41) Accurately ripped
05 [84f3913a|0d33b5b6] (17+24/41) Accurately ripped
06 [1106fef2|ba9c4c8f] (17+24/41) Accurately ripped
07 [eba3b1b9|bf4f0e01] (17+24/41) Accurately ripped
08 [ea134182|7d2c5f29] (17+24/41) Accurately ripped
09 [013c994d|a9c8e7bc] (17+24/41) Accurately ripped
10 [a0296aed|3b463fb1] (17+24/41) Accurately ripped
11 [3ca083a8|50cacdb3] (17+24/41) Accurately ripped
Offsetted by -669:
01 [46759a53] (00/40) No match (V2 was not tested)
02 [d3e2645a] (00/41) No match (V2 was not tested)
03 [5471a4e6] (00/41) No match (V2 was not tested)
04 [8ef90c27] (00/41) No match (V2 was not tested)
05 [c89c83fa] (00/41) No match (V2 was not tested)
06 [4bf2e5a5] (00/41) No match (V2 was not tested)
07 [58750d58] (00/41) No match (V2 was not tested)
08 [fc470fd5] (00/41) No match (V2 was not tested)
09 [7bbf2399] (00/41) No match (V2 was not tested)
10 [0859d602] (00/41) No match (V2 was not tested)
11 [6c5b8d1b] (00/41) No match (V2 was not tested)

Track Peak [ CRC32 ] [W/O NULL]
– 100,0 [FAD79387] [E3CCB3AF]
01 99,5 [0400756A] [BB2ACDDA]
02 100,0 [E9AA7E75] [C0885969]
03 98,8 [2BC146F0] [3E195AE7]
04 97,2 [17A490BC] [E639803A]
05 97,2 [45AD8B6D] [7095EBD8]
06 99,5 [34C30325] [996D50E4]
07 97,2 [AC092F6B] [EEA48758]
08 97,2 [DF284F0E] [9B0E4D66]
09 95,2 [E0BD1754] [C3D0918A]
10 97,2 [C6BDF12D] [882A3750]
11 97,2 [8D7DA51A] [6BAEC47A]


Nine Inch Nails - The Fragile (1999) [2006, Interscope UICY-6161/2, Japan]

All thanks go to the original releaser

Download Nine Inch Nails - The Fragile (1999):