Subcategories
Tags
Language
Tags

Nine Skies - 5.20 (2021)

Posted By: popsakov
Nine Skies - 5.20 (2021)

Nine Skies - 5.20 (2021)
EAC Rip | FLAC (Img) + Cue + Log ~ 291 Mb | MP3 CBR320 ~ 123 Mb
Full Scans ~ 268 Mb | 00:51:05 | RAR 5% Recovery
Progressive Rock | Anesthetize Productions #ANE029

Nine Skies are a French progressive rock band inspired by many influences: rock, pop, progressive, classical, jazz… The new album “5.20” is an acoustic opus including a string quator. It is released since the 4th of June 2021. Achraf El Asraoui (vocals, guitars) joined the band with this album. The personal poetry of “5.20” conjures up a dream beyond various horizons. This acoustic and very intimate opus takes us on a journey using the spellbinding charm of the string quartet, from the captivating melodies to mysterious and more introspective overtones of the album. Each moment suggests a reflection on both a universally human context and the emotional part specific to all of us: a renewed musical experience that gets more enriched with every listening of the album.

***************

Nine Skies - 5.20 (2021)

Track List:

01. Colourblind [6:03]
02. Wilderness (feat. Steve Hackett) [6:05]
03. Beauty of Decay [2:15]
04. Golden Drops [4:39]
05. Above the Tide [4:17]
06. Dear Mind [3:26]
07. The Old Man in the Snow (feat. John Hackett) [5:38]
08. Godless Land [3:32]
09. Porcelain Hill (feat. Damian Wilson) [4:02]
10. Achristas [4:52]
11. Smiling Stars [6:20]

Personnel:
Eric Bouillette - Guitars, Keyboards, Piano, Violin, Vocals, Arrangements
Alexandre Lamia - Guitars, Keyboards, Piano, Arrangements
Anne-Claire Rallo - Keyboards, Lyrics
Aliénor Favier - Vocals
Achraf Elasraoui - Vocals, Guitars
David Darnaud - Guitars
Bernard Hery - Bass
Fab Galia - Drums
Laurent Benhamou - Saxophones
With:
Cath Lubatti: Violins and viola
Lilian Jaumotte: Cello
Steve Hackett: Guitar solo (2)
Damian Wilson: Vocals (9)
John Hackett: Flute (7)

Exact Audio Copy V1.3 from 2. September 2016

Отчёт EAC об извлечении, выполненном 17. июня 2021, 16:54

Nine Skies / 5.20

Дисковод: HL-DT-STDVDRAM GT70N Adapter: 1 ID: 0

Режим чтения : Достоверность
Использование точного потока : Да
Отключение кэша аудио : Да
Использование указателей C2 : Нет

Коррекция смещения при чтении : 103
Способность читать области Lead-in и Lead-out : Нет
Заполнение пропущенных сэмплов тишиной : Да
Удаление блоков с тишиной в начале и конце : Нет
При вычислениях CRC использовались нулевые сэмплы : Да
Интерфейс : Встроенный Win32-интерфейс для Win NT/2000

Выходной формат : Пользовательский кодировщик
Выбранный битрейт : 1024 kBit/s
Качество : Высокий
Добавление ID3-тега : Нет
Утилита сжатия : C:\Program Files (x86)\Exact Audio Copy\Flac\flac.exe
Дополнительные параметры : -V -8 -T "Date=%year%" -T "Genre=%genre%" %source%


TOC извлечённого CD

Трек | Старт | Длительность | Начальный сектор | Конечный сектор
––––––––––––––––––––––––––––––––––-
1 | 0:00.00 | 6:02.44 | 0 | 27193
2 | 6:02.44 | 6:04.12 | 27194 | 54505
3 | 12:06.56 | 2:14.35 | 54506 | 64590
4 | 14:21.16 | 4:39.00 | 64591 | 85515
5 | 19:00.16 | 4:16.47 | 85516 | 104762
6 | 23:16.63 | 3:26.00 | 104763 | 120212
7 | 26:42.63 | 5:37.43 | 120213 | 145530
8 | 32:20.31 | 3:31.59 | 145531 | 161414
9 | 35:52.15 | 4:01.23 | 161415 | 179512
10 | 39:53.38 | 4:51.42 | 179513 | 201379
11 | 44:45.05 | 6:19.24 | 201380 | 229828


Характеристики диапазона извлечения и сообщения об ошибках

Выбранный диапазон

Имя файла K:\CD\Nine Skies - 5.20\Nine Skies - 5.20.wav

Пиковый уровень 100.0 %
Скорость извлечения 4.6 X
Качество диапазона 99.9 %
CRC теста B7A5B505
CRC копии B7A5B505
Копирование… OK

Ошибок не произошло


AccurateRip: сводка

Трек 1 отсутствует в базе данных
Трек 2 отсутствует в базе данных
Трек 3 отсутствует в базе данных
Трек 4 отсутствует в базе данных
Трек 5 отсутствует в базе данных
Трек 6 отсутствует в базе данных
Трек 7 отсутствует в базе данных
Трек 8 отсутствует в базе данных
Трек 9 отсутствует в базе данных
Трек 10 отсутствует в базе данных
Трек 11 отсутствует в базе данных

Ни одного трека нет в базе AccurateRip

Конец отчёта

–– CUETools DB Plugin V2.1.6

[CTDB TOCID: 8qn3ibXHlj2xt3gEWHw6NcbZ_XA-] disk not present in database
Submit result: 8qn3ibXHlj2xt3gEWHw6NcbZ_XA- has been uploaded


==== Контрольная сумма отчёта CE9DA51B807A161EFC615D526F749BCF2C9ED1DC71AE1ECD2798C677ABE1D8AC ====

All thanks go to Шибкий мужик

>>> My Blog <<<

DOWNLOAD: