Subcategories

Nino Katamadze & Insight - Black (2006)

Posted By: gribovar
Nino Katamadze & Insight - Black (2006)

Nino Katamadze & Insight - Black (2006)
EAC Rip | WavPack (image+.cue+log) - 339 MB | MP3 CBR 320 kbps (LAME 3.93) - 112 MB | Covers - 25 MB
Genre: Jazz Rock, Vocal Jazz | RAR 3% Rec. | Label: Мистерия Рекордс (MZ 323-2), 2007

Described as a "Georgian Janis Joplin," Nino Katamadze, from Batumi, is one of Georgia's most renowned singers. Defining the exact style of Katamadze's music is difficult; Nino calls it "art jazz." She sings mostly about love, sometimes spontaneously composing songs onstage."Musical motifs appear in my head unpredictably," she explains. In 1999, Nino Katamadze founded her 4 piece band - Insight. Since then they have been performing across Georgia, in Moscow and in some European countries. Band’s repertoire includes a lot of originally arranged Georgian folk songs. The strong side of the band is Nino’s vocal and extraordinariness in both music and stage performance.
Tracklist:
01. I Came
02. I Will Come As A Snow
03. Lulaluleia
04. Suliko
05. Cabaret
06. Once In The Street
07. Olei
08. Violets
09. Beauty

Total time: 47:54

Exact Audio Copy V1.0 beta 1 from 15. November 2010

EAC extraction logfile from 23. January 2011, 17:15

Нино Катамадзе & Insight / Black

Used drive : Optiarc DVD RW AD-7203S Adapter: 2 ID: 1

Read mode : Secure
Utilize accurate stream : Yes
Defeat audio cache : Yes
Make use of C2 pointers : No

Read offset correction : 48
Overread into Lead-In and Lead-Out : No
Fill up missing offset samples with silence : Yes
Delete leading and trailing silent blocks : No
Null samples used in CRC calculations : Yes
Used interface : Native Win32 interface for Win NT & 2000

Used output format : User Defined Encoder
Selected bitrate : 1024 kBit/s
Quality : High
Add ID3 tag : No
Command line compressor : H:\Program Files\Exact Audio Copy\wavpack.exe
Additional command line options : -hlm %s


TOC of the extracted CD

Track | Start | Length | Start sector | End sector
––––––––––––––––––––––––––––-
1 | 0:00.00 | 6:28.30 | 0 | 29129
2 | 6:28.30 | 5:38.70 | 29130 | 54549
3 | 12:07.25 | 4:48.11 | 54550 | 76160
4 | 16:55.36 | 3:50.59 | 76161 | 93469
5 | 20:46.20 | 5:18.09 | 93470 | 117328
6 | 26:04.29 | 5:49.07 | 117329 | 143510
7 | 31:53.36 | 4:15.72 | 143511 | 162707
8 | 36:09.33 | 3:47.22 | 162708 | 179754
9 | 39:56.55 | 7:57.16 | 179755 | 215545


Range status and errors

Selected range

Filename G:\prepare\BLACK\Нино Катамадзе & Insight - Black.wav

Peak level 98.8 %
Extraction speed 0.6 X
Range quality 100.0 %
Test CRC 2F22E812
Copy CRC 2F22E812
Copy OK

No errors occurred


AccurateRip summary

Track 1 cannot be verified as accurate (confidence 5) [C4FBF2B5], AccurateRip returned [B1E6652F]
Track 2 cannot be verified as accurate (confidence 5) [AD7DDBD2], AccurateRip returned [2265D9FA]
Track 3 cannot be verified as accurate (confidence 5) [5E424E34], AccurateRip returned [44B967EB]
Track 4 cannot be verified as accurate (confidence 6) [5706E285], AccurateRip returned [B2308832]
Track 5 cannot be verified as accurate (confidence 5) [20E2CF26], AccurateRip returned [8812E64B]
Track 6 cannot be verified as accurate (confidence 5) [CE575592], AccurateRip returned [0165E963]
Track 7 cannot be verified as accurate (confidence 5) [7F271AA9], AccurateRip returned [E6E271D9]
Track 8 cannot be verified as accurate (confidence 5) [767E1362], AccurateRip returned [4FB0D447]
Track 9 cannot be verified as accurate (confidence 5) [3818ED14], AccurateRip returned [9188126A]

No tracks could be verified as accurate
You may have a different pressing from the one(s) in the database

End of status report

==== Log checksum 5100819E5AB6ED594F06DFB3EF2103D4E779F3765281D74A598A9F45346615B2 ====

[CUETools log; Date: 21.08.2019 21:51:03; Version: 2.1.4]
[CTDB TOCID: 2w1RHFyndB7yLRbCd7dAXCdgRqM-] found.
Track | CTDB Status
1 | (23/23) Accurately ripped
2 | (23/23) Accurately ripped
3 | (23/23) Accurately ripped
4 | (23/23) Accurately ripped
5 | (23/23) Accurately ripped
6 | (23/23) Accurately ripped
7 | (23/23) Accurately ripped
8 | (23/23) Accurately ripped
9 | (23/23) Accurately ripped
[AccurateRip ID: 00105c20-0076ac5f-7b0b3909] found.
Track [ CRC | V2 ] Status
01 [c4fbf2b5|d9e07d50] (00+04/16) Accurately ripped
02 [ad7ddbd2|cb8c0443] (00+04/16) Accurately ripped
03 [5e424e34|a1ae99c7] (00+04/16) Accurately ripped
04 [5706e285|244a666b] (00+04/17) Accurately ripped
05 [20e2cf26|fb2641a0] (00+04/16) Accurately ripped
06 [ce575592|3b455b26] (00+04/16) Accurately ripped
07 [7f271aa9|8d5f65fb] (00+04/16) Accurately ripped
08 [767e1362|9058e678] (00+04/16) Accurately ripped
09 [3818ed14|55ee40da] (00+04/16) Accurately ripped
Offsetted by 664:
01 [b1e6652f] (05/16) Accurately ripped
02 [2265d9fa] (05/16) Accurately ripped
03 [44b967eb] (05/16) Accurately ripped
04 [b2308832] (06/17) Accurately ripped
05 [8812e64b] (05/16) Accurately ripped
06 [0165e963] (05/16) Accurately ripped
07 [e6e271d9] (05/16) Accurately ripped
08 [4fb0d447] (05/16) Accurately ripped
09 [9188126a] (05/16) Accurately ripped
Offsetted by 1328:
01 [5a866399] (05/16) Accurately ripped
02 [915a859d] (05/16) Accurately ripped
03 [a521962c] (05/16) Accurately ripped
04 [acf728e9] (05/17) Accurately ripped
05 [09b9a871] (05/16) Accurately ripped
06 [ffcf9b8a] (05/16) Accurately ripped
07 [2ee20bac] (05/16) Accurately ripped
08 [81bc2b4c] (05/16) Accurately ripped
09 [d68292cd] (05/16) Accurately ripped

Track Peak [ CRC32 ] [W/O NULL] [ LOG ]
– 98,8 [2F22E812] [C599DEC4] CRC32
01 98,8 [6D23C0B4] [CFEB1461]
02 98,8 [9BB0243E] [7064355B]
03 98,8 [BDA9AB28] [98953B8E]
04 98,8 [511B43DF] [D35486A4]
05 98,8 [BA1E0E9A] [CA7B2F03]
06 98,8 [2F879106] [109D9842]
07 98,8 [5C275335] [58DF2DFE]
08 98,8 [827A5914] [87D631BB]
09 98,8 [D1A27EDD] [0B5E504D]

Thanks to triGada

See also:
Nino Katamadze & Insight - Blue (2008)
Nino Katamadze & Insight - Red (2010)