Tags
Language
Tags

No-Man - Mixtaped (2009) [2xDVD + CD]

Posted By: v3122
No-Man - Mixtaped (2009) [2xDVD + CD]

No-Man - Mixtaped (2009)
XLD | Flac(Image) + Cue + Log & MP3 CBR 320Kbps
Kscope, kscope505 | ~ 245 or 100 Mb | Scans(jpg) -> 15 Mb
2xDVD-9: NTSC 16/9, 720*480 | DTS 6 ch, 754 Kbps / LPCM, 2 ch, 1 536 Kbps
Prog Rock / Art Rock / Ambient

Mixtaped is the first DVD release by British art rock group No-Man, consisting of a double DVD, with a live performance filmed at the London's Bush Hall on 29 August 2008, and a retrospective documentary titled Returning directed by award winning journalist Richard Smith, amongst other features. The DVD takes its name from a song in Schoolyard Ghosts…

~ amazon
No-Man - Mixtaped (2009):

No-Man - Mixtaped (2009) [2xDVD + CD]

Tracklist CD - Highlights from Mixtaped:

1. Only Rain/Time Travel In Texas (9.39)
2. All Sweet Things (6.42)
3. Pretty Genius (3.48)
4. Returning Jesus (4.49)
5. Mixtaped (8.57)
6. Things Change (8.19)

Guitar - Michael Bearpark , Steven Wilson
Bass - Pete Morgan
Drums - Andrew Booker
Keyboards - Stephen Bennett
Violin - Steve Bingham
Vocals - Tim Bowness


X Lossless Decoder version 20091115 (113.3)

XLD extraction logfile from 2009-11-20 17:19:47 +0200

No-Man / Highlights from Mixtaped

Used drive : MATSHITA DVD-R UJ-875 (revision DB09)

Use cdparanoia mode : YES (CDParanoia III 10.2 engine)
Disable audio cache : OK for the drive with cache less than 2750KB
Make use of C2 pointers : NO
Read offset correction : 102
Max retry count : 100

TOC of the extracted CD
Track | Start | Length | Start sector | End sector
––––––––––––––––––––––––––––-
1 | 00:00:00 | 09:39:39 | 0 | 43463
2 | 09:39:39 | 06:42:60 | 43464 | 73673
3 | 16:22:24 | 03:48:40 | 73674 | 90813
4 | 20:10:64 | 04:49:45 | 90814 | 112533
5 | 25:00:34 | 08:57:18 | 112534 | 152826
6 | 33:57:52 | 08:19:73 | 152827 | 190324

All Tracks
Filename : /Users/mksmks/Desktop/111/Highlights from Mixtaped.flac
CRC32 hash : 14A72F78
CRC32 hash (skip zero) : 42456AF2
Statistics
Read error : 0
Skipped (treated as error) : 0
Edge jitter error (maybe fixed) : 0
Atom jitter error (maybe fixed) : 0
Drift error (maybe fixed) : 0
Dropped bytes error (maybe fixed) : 0
Duplicated bytes error (maybe fixed) : 0

Track 01
CRC32 hash : DCDC32F1
CRC32 hash (skip zero) : 248C3D65
AccurateRip signature : 9217DC8E
->Track not present in AccurateRip database.
Statistics
Read error : 0
Skipped (treated as error) : 0
Edge jitter error (maybe fixed) : 0
Atom jitter error (maybe fixed) : 0
Drift error (maybe fixed) : 0
Dropped bytes error (maybe fixed) : 0
Duplicated bytes error (maybe fixed) : 0

Track 02
CRC32 hash : F924A60D
CRC32 hash (skip zero) : 63847F8D
AccurateRip signature : C9CBFF23
->Track not present in AccurateRip database.
Statistics
Read error : 0
Skipped (treated as error) : 0
Edge jitter error (maybe fixed) : 0
Atom jitter error (maybe fixed) : 0
Drift error (maybe fixed) : 0
Dropped bytes error (maybe fixed) : 0
Duplicated bytes error (maybe fixed) : 0

Track 03
CRC32 hash : 8CF78B18
CRC32 hash (skip zero) : 4396C6EE
AccurateRip signature : E5822A03
->Track not present in AccurateRip database.
Statistics
Read error : 0
Skipped (treated as error) : 0
Edge jitter error (maybe fixed) : 0
Atom jitter error (maybe fixed) : 0
Drift error (maybe fixed) : 0
Dropped bytes error (maybe fixed) : 0
Duplicated bytes error (maybe fixed) : 0

Track 04
CRC32 hash : 7132C235
CRC32 hash (skip zero) : DBED0042
AccurateRip signature : 90763F4E
->Track not present in AccurateRip database.
Statistics
Read error : 0
Skipped (treated as error) : 0
Edge jitter error (maybe fixed) : 0
Atom jitter error (maybe fixed) : 0
Drift error (maybe fixed) : 0
Dropped bytes error (maybe fixed) : 0
Duplicated bytes error (maybe fixed) : 0

Track 05
CRC32 hash : 1BB31923
CRC32 hash (skip zero) : 11AA61DB
AccurateRip signature : 957D52C0
->Track not present in AccurateRip database.
Statistics
Read error : 0
Skipped (treated as error) : 0
Edge jitter error (maybe fixed) : 0
Atom jitter error (maybe fixed) : 0
Drift error (maybe fixed) : 0
Dropped bytes error (maybe fixed) : 0
Duplicated bytes error (maybe fixed) : 0

Track 06
CRC32 hash : 865B8026
CRC32 hash (skip zero) : AD7DF327
AccurateRip signature : 99A47249
->Track not present in AccurateRip database.
Statistics
Read error : 0
Skipped (treated as error) : 0
Edge jitter error (maybe fixed) : 0
Atom jitter error (maybe fixed) : 0
Drift error (maybe fixed) : 0
Dropped bytes error (maybe fixed) : 0
Duplicated bytes error (maybe fixed) : 0

No errors occurred

End of status report

[CUETools log; Date: 06.09.2018 21:06:22; Version: 2.1.4]
[CTDB TOCID: 1CgSDtCOAm9hck9EdYgY11k67Yo-] found.
Track | CTDB Status
1 | (5/5) Accurately ripped
2 | (5/5) Accurately ripped
3 | (5/5) Accurately ripped
4 | (5/5) Accurately ripped
5 | (5/5) Accurately ripped
6 | (5/5) Accurately ripped
[AccurateRip ID: 000a2056-003525ea-4109e906] found.
Track [ CRC | V2 ] Status
01 [9217dc8e|d89d010f] (06+08/14) Accurately ripped
02 [c9cbff23|acff7a24] (05+08/13) Accurately ripped
03 [e5822a03|d24f7821] (06+08/14) Accurately ripped
04 [90763f4e|b3c37328] (06+08/14) Accurately ripped
05 [957d52c0|59843152] (06+08/14) Accurately ripped
06 [99a47249|b86943fc] (06+08/14) Accurately ripped

Track Peak [ CRC32 ] [W/O NULL]
– 100,0 [14A72F78] [42456AF2]
01 100,0 [DCDC32F1] [248C3D65]
02 77,3 [F924A60D] [63847F8D]
03 100,0 [8CF78B18] [4396C6EE]
04 99,7 [7132C235] [DBED0042]
05 100,0 [1BB31923] [11AA61DB]
06 100,0 [865B8026] [AD7DF327]


No-Man - Mixtaped (2009) [2xDVD + CD]

Tracklist DVD1:

Only Rain
Time Travel in Texas
All Sweet Things
Pretty Genius
All the Blue Changes
Truenorth
Wherever There is Light
Days in the Trees (version)
Lighthouse
Carolina Skeletons
Returning Jesus
Mixtaped
Things Change
Watching Over Me

General
Complete name : E:\Mix\No-Man 2009 - Mixtaped\No-Man 2009 - Mixtaped - DVD1\VIDEO_TS\VIDEO_TS.BUP
Format : DVD Video
Format profile : Menu
File size : 16.0 KiB
Overall bit rate mode : Variable

Video
ID : 224 (0xE0)
Format : MPEG Video
Format version : Version 2
Bit rate mode : Variable
Width : 720 pixels
Height : 480 pixels
Display aspect ratio : 16:9
Frame rate : 29.970 fps
Standard : NTSC
Compression mode : Lossy

Audio
Format : AC-3
Format/Info : Audio Coding 3
Channel(s) : 2 channels
Sampling rate : 48.0 KHz
Compression mode : Lossy

Text
Format : RLE
Format/Info : Run-length encoding
Bit depth : 2 bits

General
Complete name : E:\Mix\No-Man 2009 - Mixtaped\No-Man 2009 - Mixtaped - DVD1\VIDEO_TS\VIDEO_TS.IFO
Format : DVD Video
Format profile : Menu
File size : 16.0 KiB
Overall bit rate mode : Variable

Video
ID : 224 (0xE0)
Format : MPEG Video
Format version : Version 2
Bit rate mode : Variable
Width : 720 pixels
Height : 480 pixels
Display aspect ratio : 16:9
Frame rate : 29.970 fps
Standard : NTSC
Compression mode : Lossy

Audio
Format : AC-3
Format/Info : Audio Coding 3
Channel(s) : 2 channels
Sampling rate : 48.0 KHz
Compression mode : Lossy

Text
Format : RLE
Format/Info : Run-length encoding
Bit depth : 2 bits

General
Complete name : E:\Mix\No-Man 2009 - Mixtaped\No-Man 2009 - Mixtaped - DVD1\VIDEO_TS\VIDEO_TS.VOB
Format : MPEG-PS
File size : 69.9 MiB
Duration : 33ms
Overall bit rate mode : Variable
Overall bit rate : 17.8 Gbps

Video
ID : 224 (0xE0)
Format : MPEG Video
Format version : Version 2
Format profile : Main@Main
Format settings, BVOP : Yes
Format settings, Matrix : Custom
Format settings, GOP : Variable
Duration : 33ms
Bit rate mode : Variable
Maximum bit rate : 8 510 Kbps
Width : 720 pixels
Height : 480 pixels
Display aspect ratio : 16:9
Frame rate : 29.970 fps
Standard : NTSC
Color space : YUV
Chroma subsampling : 4:2:0
Bit depth : 8 bits
Scan type : Progressive
Scan order : Bottom Field First
Compression mode : Lossy
Time code of first frame : 00:00:00;00
Time code source : Group of pictures header
Color primaries : BT.601 NTSC
Transfer characteristics : BT.601
Matrix coefficients : BT.601

Audio
ID : 189 (0xBD)-128 (0x80)
Format : AC-3
Format/Info : Audio Coding 3
Mode extension : CM (complete main)
Format settings, Endianness : Big
Muxing mode : DVD-Video
Duration : 33ms
Bit rate mode : Constant
Bit rate : 448 Kbps
Channel(s) : 2 channels
Channel positions : Front: L R
Sampling rate : 48.0 KHz
Bit depth : 16 bits
Compression mode : Lossy
Stream size : 1.80 KiB (0%)

Text #1
ID : 189 (0xBD)-32 (0x20)
Format : RLE
Format/Info : Run-length encoding
Muxing mode : DVD-Video

Text #2
ID : 189 (0xBD)-33 (0x21)
Format : RLE
Format/Info : Run-length encoding
Muxing mode : DVD-Video

Menu

General
Complete name : E:\Mix\No-Man 2009 - Mixtaped\No-Man 2009 - Mixtaped - DVD1\VIDEO_TS\VTS_01_0.BUP
Format : DVD Video
Format profile : Program
File size : 18.0 KiB
Duration : 400ms
Overall bit rate mode : Variable
Overall bit rate : 369 Kbps

Video
ID : 224 (0xE0)
Format : MPEG Video
Format version : Version 2
Duration : 400ms
Bit rate mode : Variable
Width : 720 pixels
Height : 480 pixels
Display aspect ratio : 16:9
Frame rate : 29.970 fps
Standard : NTSC
Compression mode : Lossy

Audio
Format : AC-3
Format/Info : Audio Coding 3
Duration : 400ms
Channel(s) : 2 channels
Sampling rate : 48.0 KHz
Compression mode : Lossy

Menu #1

Menu #2
Duration : 400ms
00:00:00.000 : Chapter 1

General
Complete name : E:\Mix\No-Man 2009 - Mixtaped\No-Man 2009 - Mixtaped - DVD1\VIDEO_TS\VTS_01_0.IFO
Format : DVD Video
Format profile : Program
File size : 18.0 KiB
Duration : 400ms
Overall bit rate mode : Variable
Overall bit rate : 369 Kbps

Video
ID : 224 (0xE0)
Format : MPEG Video
Format version : Version 2
Duration : 400ms
Bit rate mode : Variable
Width : 720 pixels
Height : 480 pixels
Display aspect ratio : 16:9
Frame rate : 29.970 fps
Standard : NTSC
Compression mode : Lossy

Audio
Format : AC-3
Format/Info : Audio Coding 3
Duration : 400ms
Channel(s) : 2 channels
Sampling rate : 48.0 KHz
Compression mode : Lossy

Menu #1

Menu #2
Duration : 400ms
00:00:00.000 : Chapter 1

General
Complete name : E:\Mix\No-Man 2009 - Mixtaped\No-Man 2009 - Mixtaped - DVD1\VIDEO_TS\VTS_01_0.VOB
Format : MPEG-PS
File size : 73.3 MiB
Duration : 1mn 31s
Overall bit rate mode : Variable
Overall bit rate : 6 751 Kbps

Video
ID : 224 (0xE0)
Format : MPEG Video
Format version : Version 2
Format profile : Main@Main
Format settings, BVOP : Yes
Format settings, Matrix : Custom
Format settings, GOP : M=3, N=15
Duration : 1mn 31s
Bit rate mode : Variable
Bit rate : 6 168 Kbps
Maximum bit rate : 8 019 Kbps
Width : 720 pixels
Height : 480 pixels
Display aspect ratio : 16:9
Frame rate : 29.970 fps
Standard : NTSC
Color space : YUV
Chroma subsampling : 4:2:0
Bit depth : 8 bits
Scan type : Progressive
Scan order : Bottom Field First
Compression mode : Lossy
Bits/(Pixel*Frame) : 0.596
Time code of first frame : 00:00:00;00
Time code source : Group of pictures header
Stream size : 67.0 MiB (91%)
Color primaries : BT.601 NTSC
Transfer characteristics : BT.601
Matrix coefficients : BT.601

Audio
ID : 189 (0xBD)-128 (0x80)
Format : AC-3
Format/Info : Audio Coding 3
Mode extension : CM (complete main)
Format settings, Endianness : Big
Muxing mode : DVD-Video
Duration : 1mn 31s
Bit rate mode : Constant
Bit rate : 448 Kbps
Channel(s) : 2 channels
Channel positions : Front: L R
Sampling rate : 48.0 KHz
Bit depth : 16 bits
Compression mode : Lossy
Stream size : 4.86 MiB (7%)

Menu

General
Complete name : E:\Mix\No-Man 2009 - Mixtaped\No-Man 2009 - Mixtaped - DVD1\VIDEO_TS\VTS_01_1.VOB
File size : 9.97 MiB

General
Complete name : E:\Mix\No-Man 2009 - Mixtaped\No-Man 2009 - Mixtaped - DVD1\VIDEO_TS\VTS_02_0.BUP
Format : DVD Video
Format profile : Program
File size : 62.0 KiB
Duration : 1h 31mn
Overall bit rate mode : Variable
Overall bit rate : 92 bps

Video
ID : 224 (0xE0)
Format : MPEG Video
Format version : Version 2
Duration : 1h 31mn
Bit rate mode : Variable
Width : 720 pixels
Height : 480 pixels
Display aspect ratio : 16:9
Frame rate : 29.970 fps
Standard : NTSC
Compression mode : Lossy

Audio #1
ID : 0 (0x0)
Format : PCM
Duration : 1h 31mn
Channel(s) : 2 channels
Sampling rate : 48.0 KHz
Bit depth : DRC bit
Language : English

Audio #2
ID : 137 (0x89)
Format : DTS
Format/Info : Digital Theater Systems
Duration : 1h 31mn
Channel(s) : 6 channels
Sampling rate : 48.0 KHz
Compression mode : Lossy
Language : English

Menu #1
Duration : 1h 31mn
00:00:00.000 : Chapter 1
00:04:39.700 : Chapter 2
00:09:35.400 : Chapter 3
00:16:28.633 : Chapter 4
00:20:19.166 : Chapter 5
00:26:36.066 : Chapter 6
00:34:15.999 : Chapter 7
00:39:24.532 : Chapter 8
00:44:54.298 : Chapter 9
00:53:06.464 : Chapter 10
00:59:54.397 : Chapter 11
01:05:07.097 : Chapter 12
01:15:07.697 : Chapter 13
01:24:19.630 : Chapter 14
01:30:03.996 : Chapter 15
List (Audio) : 0 / 1

Menu #2
Duration : 400ms
00:00:00.000 : Chapter 1

General
Complete name : E:\Mix\No-Man 2009 - Mixtaped\No-Man 2009 - Mixtaped - DVD1\VIDEO_TS\VTS_02_0.IFO
Format : DVD Video
Format profile : Program
File size : 62.0 KiB
Duration : 1h 31mn
Overall bit rate mode : Variable
Overall bit rate : 92 bps

Video
ID : 224 (0xE0)
Format : MPEG Video
Format version : Version 2
Duration : 1h 31mn
Bit rate mode : Variable
Width : 720 pixels
Height : 480 pixels
Display aspect ratio : 16:9
Frame rate : 29.970 fps
Standard : NTSC
Compression mode : Lossy

Audio #1
ID : 0 (0x0)
Format : PCM
Duration : 1h 31mn
Channel(s) : 2 channels
Sampling rate : 48.0 KHz
Bit depth : DRC bit
Language : English

Audio #2
ID : 137 (0x89)
Format : DTS
Format/Info : Digital Theater Systems
Duration : 1h 31mn
Channel(s) : 6 channels
Sampling rate : 48.0 KHz
Compression mode : Lossy
Language : English

Menu #1
Duration : 1h 31mn
00:00:00.000 : Chapter 1
00:04:39.700 : Chapter 2
00:09:35.400 : Chapter 3
00:16:28.633 : Chapter 4
00:20:19.166 : Chapter 5
00:26:36.066 : Chapter 6
00:34:15.999 : Chapter 7
00:39:24.532 : Chapter 8
00:44:54.298 : Chapter 9
00:53:06.464 : Chapter 10
00:59:54.397 : Chapter 11
01:05:07.097 : Chapter 12
01:15:07.697 : Chapter 13
01:24:19.630 : Chapter 14
01:30:03.996 : Chapter 15
List (Audio) : 0 / 1

Menu #2
Duration : 400ms
00:00:00.000 : Chapter 1

General
Complete name : E:\Mix\No-Man 2009 - Mixtaped\No-Man 2009 - Mixtaped - DVD1\VIDEO_TS\VTS_02_1.VOB
Format : MPEG-PS
File size : 1 024 MiB
Duration : 17mn 22s
Overall bit rate mode : Variable
Overall bit rate : 8 240 Kbps

Video
ID : 224 (0xE0)
Format : MPEG Video
Format version : Version 2
Format profile : Main@Main
Format settings, BVOP : Yes
Format settings, Matrix : Custom
Format settings, GOP : Variable
Duration : 17mn 22s
Bit rate mode : Variable
Bit rate : 5 785 Kbps
Maximum bit rate : 9 800 Kbps
Width : 720 pixels
Height : 480 pixels
Display aspect ratio : 16:9
Frame rate : 29.970 fps
Standard : NTSC
Color space : YUV
Chroma subsampling : 4:2:0
Bit depth : 8 bits
Scan type : Interlaced
Scan order : Bottom Field First
Compression mode : Lossy
Bits/(Pixel*Frame) : 0.559
Time code of first frame : 01:00:00:00
Time code source : Group of pictures header
Stream size : 719 MiB (70%)

Audio #1
ID : 189 (0xBD)-137 (0x89)
Format : DTS
Format/Info : Digital Theater Systems
Mode : 16
Format settings, Endianness : Big
Muxing mode : DVD-Video
Duration : 17mn 22s
Bit rate mode : Constant
Bit rate : 755 Kbps
Channel(s) : 6 channels
Channel positions : Front: L C R, Side: L R, LFE
Sampling rate : 48.0 KHz
Bit depth : 16 bits
Compression mode : Lossy
Stream size : 93.8 MiB (9%)

Audio #2
ID : 189 (0xBD)-160 (0xA0)
Format : PCM
Format settings, Endianness : Big
Format settings, Sign : Signed
Muxing mode : DVD-Video
Duration : 17mn 22s
Bit rate mode : Constant
Bit rate : 1 536 Kbps
Channel(s) : 2 channels
Sampling rate : 48.0 KHz
Bit depth : 16 bits
Stream size : 191 MiB (19%)

Menu

General
Complete name : E:\Mix\No-Man 2009 - Mixtaped\No-Man 2009 - Mixtaped - DVD1\VIDEO_TS\VTS_02_2.VOB
Format : MPEG-PS
File size : 1 024 MiB
Duration : 16mn 44s
Overall bit rate mode : Variable
Overall bit rate : 8 554 Kbps

Video
ID : 224 (0xE0)
Format : MPEG Video
Format version : Version 2
Format profile : Main@Main
Format settings, BVOP : Yes
Format settings, Matrix : Custom
Format settings, GOP : Variable
Duration : 16mn 43s
Bit rate mode : Variable
Bit rate : 6 093 Kbps
Maximum bit rate : 9 800 Kbps
Width : 720 pixels
Height : 480 pixels
Display aspect ratio : 16:9
Frame rate : 29.970 fps
Standard : NTSC
Color space : YUV
Chroma subsampling : 4:2:0
Bit depth : 8 bits
Scan type : Interlaced
Scan order : Bottom Field First
Compression mode : Lossy
Bits/(Pixel*Frame) : 0.588
Time code of first frame : 01:17:21:22
Time code source : Group of pictures header
Stream size : 729 MiB (71%)

Audio #1
ID : 189 (0xBD)-137 (0x89)
Format : DTS
Format/Info : Digital Theater Systems
Mode : 16
Format settings, Endianness : Big
Muxing mode : DVD-Video
Duration : 16mn 44s
Bit rate mode : Constant
Bit rate : 755 Kbps
Channel(s) : 6 channels
Channel positions : Front: L C R, Side: L R, LFE
Sampling rate : 48.0 KHz
Bit depth : 16 bits
Compression mode : Lossy
Delay relative to video : -517ms
Stream size : 90.3 MiB (9%)

Audio #2
ID : 189 (0xBD)-160 (0xA0)
Format : PCM
Format settings, Endianness : Big
Format settings, Sign : Signed
Muxing mode : DVD-Video
Duration : 16mn 44s
Bit rate mode : Constant
Bit rate : 1 536 Kbps
Channel(s) : 2 channels
Sampling rate : 48.0 KHz
Bit depth : 16 bits
Delay relative to video : -522ms
Stream size : 184 MiB (18%)

Menu

General
Complete name : E:\Mix\No-Man 2009 - Mixtaped\No-Man 2009 - Mixtaped - DVD1\VIDEO_TS\VTS_02_3.VOB
Format : MPEG-PS
File size : 1 024 MiB
Duration : 16mn 42s
Overall bit rate mode : Variable
Overall bit rate : 8 567 Kbps

Video
ID : 224 (0xE0)
Format : MPEG Video
Format version : Version 2
Format profile : Main@Main
Format settings, BVOP : Yes
Format settings, Matrix : Custom
Format settings, GOP : Variable
Duration : 16mn 42s
Bit rate mode : Variable
Bit rate : 6 106 Kbps
Maximum bit rate : 9 800 Kbps
Width : 720 pixels
Height : 480 pixels
Display aspect ratio : 16:9
Frame rate : 29.970 fps
Standard : NTSC
Color space : YUV
Chroma subsampling : 4:2:0
Bit depth : 8 bits
Scan type : Interlaced
Scan order : Bottom Field First
Compression mode : Lossy
Bits/(Pixel*Frame) : 0.590
Time code of first frame : 01:34:04:23
Time code source : Group of pictures header
Stream size : 730 MiB (71%)

Audio #1
ID : 189 (0xBD)-137 (0x89)
Format : DTS
Format/Info : Digital Theater Systems
Mode : 16
Format settings, Endianness : Big
Muxing mode : DVD-Video
Duration : 16mn 42s
Bit rate mode : Constant
Bit rate : 755 Kbps
Channel(s) : 6 channels
Channel positions : Front: L C R, Side: L R, LFE
Sampling rate : 48.0 KHz
Bit depth : 16 bits
Compression mode : Lossy
Delay relative to video : -329ms
Stream size : 90.2 MiB (9%)

Audio #2
ID : 189 (0xBD)-160 (0xA0)
Format : PCM
Format settings, Endianness : Big
Format settings, Sign : Signed
Muxing mode : DVD-Video
Duration : 16mn 42s
Bit rate mode : Constant
Bit rate : 1 536 Kbps
Channel(s) : 2 channels
Sampling rate : 48.0 KHz
Bit depth : 16 bits
Delay relative to video : -338ms
Stream size : 184 MiB (18%)

Menu

General
Complete name : E:\Mix\No-Man 2009 - Mixtaped\No-Man 2009 - Mixtaped - DVD1\VIDEO_TS\VTS_02_4.VOB
Format : MPEG-PS
File size : 1 024 MiB
Duration : 17mn 0s
Overall bit rate mode : Variable
Overall bit rate : 8 418 Kbps

Video
ID : 224 (0xE0)
Format : MPEG Video
Format version : Version 2
Format profile : Main@Main
Format settings, BVOP : Yes
Format settings, Matrix : Custom
Format settings, GOP : Variable
Duration : 17mn 0s
Bit rate mode : Variable
Bit rate : 5 960 Kbps
Maximum bit rate : 9 800 Kbps
Width : 720 pixels
Height : 480 pixels
Display aspect ratio : 16:9
Frame rate : 29.970 fps
Standard : NTSC
Color space : YUV
Chroma subsampling : 4:2:0
Bit depth : 8 bits
Scan type : Interlaced
Scan order : Bottom Field First
Compression mode : Lossy
Bits/(Pixel*Frame) : 0.575
Time code of first frame : 01:50:46:12
Time code source : Group of pictures header
Stream size : 725 MiB (71%)

Audio #1
ID : 189 (0xBD)-137 (0x89)
Format : DTS
Format/Info : Digital Theater Systems
Mode : 16
Format settings, Endianness : Big
Muxing mode : DVD-Video
Duration : 17mn 0s
Bit rate mode : Constant
Bit rate : 755 Kbps
Channel(s) : 6 channels
Channel positions : Front: L C R, Side: L R, LFE
Sampling rate : 48.0 KHz
Bit depth : 16 bits
Compression mode : Lossy
Delay relative to video : -307ms
Stream size : 91.8 MiB (9%)

Audio #2
ID : 189 (0xBD)-160 (0xA0)
Format : PCM
Format settings, Endianness : Big
Format settings, Sign : Signed
Muxing mode : DVD-Video
Duration : 17mn 0s
Bit rate mode : Constant
Bit rate : 1 536 Kbps
Channel(s) : 2 channels
Sampling rate : 48.0 KHz
Bit depth : 16 bits
Delay relative to video : -310ms
Stream size : 187 MiB (18%)

Menu

General
Complete name : E:\Mix\No-Man 2009 - Mixtaped\No-Man 2009 - Mixtaped - DVD1\VIDEO_TS\VTS_02_5.VOB
Format : MPEG-PS
File size : 1 024 MiB
Duration : 16mn 28s
Overall bit rate mode : Variable
Overall bit rate : 8 687 Kbps

Video
ID : 224 (0xE0)
Format : MPEG Video
Format version : Version 2
Format profile : Main@Main
Format settings, BVOP : Yes
Format settings, Matrix : Custom
Format settings, GOP : Variable
Duration : 16mn 28s
Bit rate mode : Variable
Bit rate : 6 223 Kbps
Maximum bit rate : 9 800 Kbps
Width : 720 pixels
Height : 480 pixels
Display aspect ratio : 16:9
Frame rate : 29.970 fps
Standard : NTSC
Color space : YUV
Chroma subsampling : 4:2:0
Bit depth : 8 bits
Scan type : Interlaced
Scan order : Bottom Field First
Compression mode : Lossy
Bits/(Pixel*Frame) : 0.601
Time code of first frame : 02:07:46:06
Time code source : Group of pictures header
Stream size : 733 MiB (72%)

Audio #1
ID : 189 (0xBD)-137 (0x89)
Format : DTS
Format/Info : Digital Theater Systems
Mode : 16
Format settings, Endianness : Big
Muxing mode : DVD-Video
Duration : 16mn 28s
Bit rate mode : Constant
Bit rate : 755 Kbps
Channel(s) : 6 channels
Channel positions : Front: L C R, Side: L R, LFE
Sampling rate : 48.0 KHz
Bit depth : 16 bits
Compression mode : Lossy
Delay relative to video : -658ms
Stream size : 88.9 MiB (9%)

Audio #2
ID : 189 (0xBD)-160 (0xA0)
Format : PCM
Format settings, Endianness : Big
Format settings, Sign : Signed
Muxing mode : DVD-Video
Duration : 16mn 28s
Bit rate mode : Constant
Bit rate : 1 536 Kbps
Channel(s) : 2 channels
Sampling rate : 48.0 KHz
Bit depth : 16 bits
Delay relative to video : -651ms
Stream size : 181 MiB (18%)

Menu

General
Complete name : E:\Mix\No-Man 2009 - Mixtaped\No-Man 2009 - Mixtaped - DVD1\VIDEO_TS\VTS_02_6.VOB
Format : MPEG-PS
File size : 434 MiB
Duration : 7mn 34s
Overall bit rate mode : Variable
Overall bit rate : 7 998 Kbps

Video
ID : 224 (0xE0)
Format : MPEG Video
Format version : Version 2
Format profile : Main@Main
Format settings, BVOP : Yes
Format settings, Matrix : Custom
Format settings, GOP : M=3, N=15
Duration : 7mn 34s
Bit rate mode : Variable
Bit rate : 5 548 Kbps
Maximum bit rate : 9 800 Kbps
Width : 720 pixels
Height : 480 pixels
Display aspect ratio : 16:9
Frame rate : 29.970 fps
Standard : NTSC
Color space : YUV
Chroma subsampling : 4:2:0
Bit depth : 8 bits
Scan type : Interlaced
Scan order : Bottom Field First
Compression mode : Lossy
Bits/(Pixel*Frame) : 0.536
Time code of first frame : 02:24:13:19
Time code source : Group of pictures header
Stream size : 301 MiB (69%)

Audio #1
ID : 189 (0xBD)-137 (0x89)
Format : DTS
Format/Info : Digital Theater Systems
Mode : 16
Format settings, Endianness : Big
Muxing mode : DVD-Video
Duration : 7mn 34s
Bit rate mode : Constant
Bit rate : 755 Kbps
Channel(s) : 6 channels
Channel positions : Front: L C R, Side: L R, LFE
Sampling rate : 48.0 KHz
Bit depth : 16 bits
Compression mode : Lossy
Delay relative to video : -237ms
Stream size : 40.9 MiB (9%)

Audio #2
ID : 189 (0xBD)-160 (0xA0)
Format : PCM
Format settings, Endianness : Big
Format settings, Sign : Signed
Muxing mode : DVD-Video
Duration : 7mn 34s
Bit rate mode : Constant
Bit rate : 1 536 Kbps
Channel(s) : 2 channels
Sampling rate : 48.0 KHz
Bit depth : 16 bits
Delay relative to video : -237ms
Stream size : 83.3 MiB (19%)

Menu

General
Complete name : E:\Mix\No-Man 2009 - Mixtaped\No-Man 2009 - Mixtaped - DVD1\VIDEO_TS\VTS_03_0.BUP
Format : DVD Video
Format profile : Program
File size : 20.0 KiB
Duration : 5mn 27s
Overall bit rate mode : Variable
Overall bit rate : 500 bps

Video
ID : 224 (0xE0)
Format : MPEG Video
Format version : Version 2
Duration : 5mn 27s
Bit rate mode : Variable
Width : 720 pixels
Height : 480 pixels
Display aspect ratio : 16:9
Frame rate : 29.970 fps
Standard : NTSC
Compression mode : Lossy

Audio
ID : 0 (0x0)
Format : PCM
Duration : 5mn 27s
Channel(s) : 2 channels
Sampling rate : 48.0 KHz

Menu
Duration : 5mn 27s
00:00:00.000 : Chapter 1
List (Audio) : 0

General
Complete name : E:\Mix\No-Man 2009 - Mixtaped\No-Man 2009 - Mixtaped - DVD1\VIDEO_TS\VTS_03_0.IFO
Format : DVD Video
Format profile : Program
File size : 20.0 KiB
Duration : 5mn 27s
Overall bit rate mode : Variable
Overall bit rate : 500 bps

Video
ID : 224 (0xE0)
Format : MPEG Video
Format version : Version 2
Duration : 5mn 27s
Bit rate mode : Variable
Width : 720 pixels
Height : 480 pixels
Display aspect ratio : 16:9
Frame rate : 29.970 fps
Standard : NTSC
Compression mode : Lossy

Audio
ID : 0 (0x0)
Format : PCM
Duration : 5mn 27s
Channel(s) : 2 channels
Sampling rate : 48.0 KHz

Menu
Duration : 5mn 27s
00:00:00.000 : Chapter 1
List (Audio) : 0

General
Complete name : E:\Mix\No-Man 2009 - Mixtaped\No-Man 2009 - Mixtaped - DVD1\VIDEO_TS\VTS_03_1.VOB
Format : MPEG-PS
File size : 287 MiB
Duration : 5mn 27s
Overall bit rate mode : Variable
Overall bit rate : 7 329 Kbps

Video
ID : 224 (0xE0)
Format : MPEG Video
Format version : Version 2
Format profile : Main@Main
Format settings, BVOP : Yes
Format settings, Matrix : Custom
Format settings, GOP : M=3, N=15
Duration : 5mn 27s
Bit rate mode : Variable
Bit rate : 5 647 Kbps
Maximum bit rate : 9 800 Kbps
Width : 720 pixels
Height : 480 pixels
Display aspect ratio : 16:9
Frame rate : 29.970 fps
Standard : NTSC
Color space : YUV
Chroma subsampling : 4:2:0
Bit depth : 8 bits
Scan type : Interlaced
Scan order : Bottom Field First
Compression mode : Lossy
Bits/(Pixel*Frame) : 0.545
Time code of first frame : 00:00:07:00
Time code source : Group of pictures header
Stream size : 221 MiB (77%)

Audio
ID : 189 (0xBD)-160 (0xA0)
Format : PCM
Format settings, Endianness : Big
Format settings, Sign : Signed
Muxing mode : DVD-Video
Duration : 5mn 27s
Bit rate mode : Constant
Bit rate : 1 536 Kbps
Channel(s) : 2 channels
Sampling rate : 48.0 KHz
Bit depth : 16 bits
Stream size : 60.1 MiB (21%)

Menu



No-Man - Mixtaped (2009) [2xDVD + CD]

Tracklist DVD2:

The second disc consists of a retrospective documentary covering the entire band career including previously unseen footage, photos and images, and interviews with No-Man different live and studio members from past and present (including Tim Bowness, Steven Wilson, Ben Coleman and Chris Maitland). This DVD also features videos for the songs "Colours", "Sweetheart Raw", "The Ballet Beast" and "Back When You Were Beautiful", a No-Man chronology and deleted scenes

General
Complete name : E:\Mix\No-Man 2009 - Mixtaped\No-Man 2009 - Mixtaped - DVD1\VIDEO_TS\VIDEO_TS.BUP
Format : DVD Video
Format profile : Menu
File size : 16.0 KiB
Overall bit rate mode : Variable

Video
ID : 224 (0xE0)
Format : MPEG Video
Format version : Version 2
Bit rate mode : Variable
Width : 720 pixels
Height : 480 pixels
Display aspect ratio : 16:9
Frame rate : 29.970 fps
Standard : NTSC
Compression mode : Lossy

Audio
Format : AC-3
Format/Info : Audio Coding 3
Channel(s) : 2 channels
Sampling rate : 48.0 KHz
Compression mode : Lossy

Text
Format : RLE
Format/Info : Run-length encoding
Bit depth : 2 bits

General
Complete name : E:\Mix\No-Man 2009 - Mixtaped\No-Man 2009 - Mixtaped - DVD1\VIDEO_TS\VIDEO_TS.IFO
Format : DVD Video
Format profile : Menu
File size : 16.0 KiB
Overall bit rate mode : Variable

Video
ID : 224 (0xE0)
Format : MPEG Video
Format version : Version 2
Bit rate mode : Variable
Width : 720 pixels
Height : 480 pixels
Display aspect ratio : 16:9
Frame rate : 29.970 fps
Standard : NTSC
Compression mode : Lossy

Audio
Format : AC-3
Format/Info : Audio Coding 3
Channel(s) : 2 channels
Sampling rate : 48.0 KHz
Compression mode : Lossy

Text
Format : RLE
Format/Info : Run-length encoding
Bit depth : 2 bits

General
Complete name : E:\Mix\No-Man 2009 - Mixtaped\No-Man 2009 - Mixtaped - DVD1\VIDEO_TS\VIDEO_TS.VOB
Format : MPEG-PS
File size : 69.9 MiB
Duration : 33ms
Overall bit rate mode : Variable
Overall bit rate : 17.8 Gbps

Video
ID : 224 (0xE0)
Format : MPEG Video
Format version : Version 2
Format profile : Main@Main
Format settings, BVOP : Yes
Format settings, Matrix : Custom
Format settings, GOP : Variable
Duration : 33ms
Bit rate mode : Variable
Maximum bit rate : 8 510 Kbps
Width : 720 pixels
Height : 480 pixels
Display aspect ratio : 16:9
Frame rate : 29.970 fps
Standard : NTSC
Color space : YUV
Chroma subsampling : 4:2:0
Bit depth : 8 bits
Scan type : Progressive
Scan order : Bottom Field First
Compression mode : Lossy
Time code of first frame : 00:00:00;00
Time code source : Group of pictures header
Color primaries : BT.601 NTSC
Transfer characteristics : BT.601
Matrix coefficients : BT.601

Audio
ID : 189 (0xBD)-128 (0x80)
Format : AC-3
Format/Info : Audio Coding 3
Mode extension : CM (complete main)
Format settings, Endianness : Big
Muxing mode : DVD-Video
Duration : 33ms
Bit rate mode : Constant
Bit rate : 448 Kbps
Channel(s) : 2 channels
Channel positions : Front: L R
Sampling rate : 48.0 KHz
Bit depth : 16 bits
Compression mode : Lossy
Stream size : 1.80 KiB (0%)

Text #1
ID : 189 (0xBD)-32 (0x20)
Format : RLE
Format/Info : Run-length encoding
Muxing mode : DVD-Video

Text #2
ID : 189 (0xBD)-33 (0x21)
Format : RLE
Format/Info : Run-length encoding
Muxing mode : DVD-Video

Menu

General
Complete name : E:\Mix\No-Man 2009 - Mixtaped\No-Man 2009 - Mixtaped - DVD1\VIDEO_TS\VTS_01_0.BUP
Format : DVD Video
Format profile : Program
File size : 18.0 KiB
Duration : 400ms
Overall bit rate mode : Variable
Overall bit rate : 369 Kbps

Video
ID : 224 (0xE0)
Format : MPEG Video
Format version : Version 2
Duration : 400ms
Bit rate mode : Variable
Width : 720 pixels
Height : 480 pixels
Display aspect ratio : 16:9
Frame rate : 29.970 fps
Standard : NTSC
Compression mode : Lossy

Audio
Format : AC-3
Format/Info : Audio Coding 3
Duration : 400ms
Channel(s) : 2 channels
Sampling rate : 48.0 KHz
Compression mode : Lossy

Menu #1

Menu #2
Duration : 400ms
00:00:00.000 : Chapter 1

General
Complete name : E:\Mix\No-Man 2009 - Mixtaped\No-Man 2009 - Mixtaped - DVD1\VIDEO_TS\VTS_01_0.IFO
Format : DVD Video
Format profile : Program
File size : 18.0 KiB
Duration : 400ms
Overall bit rate mode : Variable
Overall bit rate : 369 Kbps

Video
ID : 224 (0xE0)
Format : MPEG Video
Format version : Version 2
Duration : 400ms
Bit rate mode : Variable
Width : 720 pixels
Height : 480 pixels
Display aspect ratio : 16:9
Frame rate : 29.970 fps
Standard : NTSC
Compression mode : Lossy

Audio
Format : AC-3
Format/Info : Audio Coding 3
Duration : 400ms
Channel(s) : 2 channels
Sampling rate : 48.0 KHz
Compression mode : Lossy

Menu #1

Menu #2
Duration : 400ms
00:00:00.000 : Chapter 1

General
Complete name : E:\Mix\No-Man 2009 - Mixtaped\No-Man 2009 - Mixtaped - DVD1\VIDEO_TS\VTS_01_0.VOB
Format : MPEG-PS
File size : 73.3 MiB
Duration : 1mn 31s
Overall bit rate mode : Variable
Overall bit rate : 6 751 Kbps

Video
ID : 224 (0xE0)
Format : MPEG Video
Format version : Version 2
Format profile : Main@Main
Format settings, BVOP : Yes
Format settings, Matrix : Custom
Format settings, GOP : M=3, N=15
Duration : 1mn 31s
Bit rate mode : Variable
Bit rate : 6 168 Kbps
Maximum bit rate : 8 019 Kbps
Width : 720 pixels
Height : 480 pixels
Display aspect ratio : 16:9
Frame rate : 29.970 fps
Standard : NTSC
Color space : YUV
Chroma subsampling : 4:2:0
Bit depth : 8 bits
Scan type : Progressive
Scan order : Bottom Field First
Compression mode : Lossy
Bits/(Pixel*Frame) : 0.596
Time code of first frame : 00:00:00;00
Time code source : Group of pictures header
Stream size : 67.0 MiB (91%)
Color primaries : BT.601 NTSC
Transfer characteristics : BT.601
Matrix coefficients : BT.601

Audio
ID : 189 (0xBD)-128 (0x80)
Format : AC-3
Format/Info : Audio Coding 3
Mode extension : CM (complete main)
Format settings, Endianness : Big
Muxing mode : DVD-Video
Duration : 1mn 31s
Bit rate mode : Constant
Bit rate : 448 Kbps
Channel(s) : 2 channels
Channel positions : Front: L R
Sampling rate : 48.0 KHz
Bit depth : 16 bits
Compression mode : Lossy
Stream size : 4.86 MiB (7%)

Menu

General
Complete name : E:\Mix\No-Man 2009 - Mixtaped\No-Man 2009 - Mixtaped - DVD1\VIDEO_TS\VTS_01_1.VOB
File size : 9.97 MiB

General
Complete name : E:\Mix\No-Man 2009 - Mixtaped\No-Man 2009 - Mixtaped - DVD1\VIDEO_TS\VTS_02_0.BUP
Format : DVD Video
Format profile : Program
File size : 62.0 KiB
Duration : 1h 31mn
Overall bit rate mode : Variable
Overall bit rate : 92 bps

Video
ID : 224 (0xE0)
Format : MPEG Video
Format version : Version 2
Duration : 1h 31mn
Bit rate mode : Variable
Width : 720 pixels
Height : 480 pixels
Display aspect ratio : 16:9
Frame rate : 29.970 fps
Standard : NTSC
Compression mode : Lossy

Audio #1
ID : 0 (0x0)
Format : PCM
Duration : 1h 31mn
Channel(s) : 2 channels
Sampling rate : 48.0 KHz
Bit depth : DRC bit
Language : English

Audio #2
ID : 137 (0x89)
Format : DTS
Format/Info : Digital Theater Systems
Duration : 1h 31mn
Channel(s) : 6 channels
Sampling rate : 48.0 KHz
Compression mode : Lossy
Language : English

Menu #1
Duration : 1h 31mn
00:00:00.000 : Chapter 1
00:04:39.700 : Chapter 2
00:09:35.400 : Chapter 3
00:16:28.633 : Chapter 4
00:20:19.166 : Chapter 5
00:26:36.066 : Chapter 6
00:34:15.999 : Chapter 7
00:39:24.532 : Chapter 8
00:44:54.298 : Chapter 9
00:53:06.464 : Chapter 10
00:59:54.397 : Chapter 11
01:05:07.097 : Chapter 12
01:15:07.697 : Chapter 13
01:24:19.630 : Chapter 14
01:30:03.996 : Chapter 15
List (Audio) : 0 / 1

Menu #2
Duration : 400ms
00:00:00.000 : Chapter 1

General
Complete name : E:\Mix\No-Man 2009 - Mixtaped\No-Man 2009 - Mixtaped - DVD1\VIDEO_TS\VTS_02_0.IFO
Format : DVD Video
Format profile : Program
File size : 62.0 KiB
Duration : 1h 31mn
Overall bit rate mode : Variable
Overall bit rate : 92 bps

Video
ID : 224 (0xE0)
Format : MPEG Video
Format version : Version 2
Duration : 1h 31mn
Bit rate mode : Variable
Width : 720 pixels
Height : 480 pixels
Display aspect ratio : 16:9
Frame rate : 29.970 fps
Standard : NTSC
Compression mode : Lossy

Audio #1
ID : 0 (0x0)
Format : PCM
Duration : 1h 31mn
Channel(s) : 2 channels
Sampling rate : 48.0 KHz
Bit depth : DRC bit
Language : English

Audio #2
ID : 137 (0x89)
Format : DTS
Format/Info : Digital Theater Systems
Duration : 1h 31mn
Channel(s) : 6 channels
Sampling rate : 48.0 KHz
Compression mode : Lossy
Language : English

Menu #1
Duration : 1h 31mn
00:00:00.000 : Chapter 1
00:04:39.700 : Chapter 2
00:09:35.400 : Chapter 3
00:16:28.633 : Chapter 4
00:20:19.166 : Chapter 5
00:26:36.066 : Chapter 6
00:34:15.999 : Chapter 7
00:39:24.532 : Chapter 8
00:44:54.298 : Chapter 9
00:53:06.464 : Chapter 10
00:59:54.397 : Chapter 11
01:05:07.097 : Chapter 12
01:15:07.697 : Chapter 13
01:24:19.630 : Chapter 14
01:30:03.996 : Chapter 15
List (Audio) : 0 / 1

Menu #2
Duration : 400ms
00:00:00.000 : Chapter 1

General
Complete name : E:\Mix\No-Man 2009 - Mixtaped\No-Man 2009 - Mixtaped - DVD1\VIDEO_TS\VTS_02_1.VOB
Format : MPEG-PS
File size : 1 024 MiB
Duration : 17mn 22s
Overall bit rate mode : Variable
Overall bit rate : 8 240 Kbps

Video
ID : 224 (0xE0)
Format : MPEG Video
Format version : Version 2
Format profile : Main@Main
Format settings, BVOP : Yes
Format settings, Matrix : Custom
Format settings, GOP : Variable
Duration : 17mn 22s
Bit rate mode : Variable
Bit rate : 5 785 Kbps
Maximum bit rate : 9 800 Kbps
Width : 720 pixels
Height : 480 pixels
Display aspect ratio : 16:9
Frame rate : 29.970 fps
Standard : NTSC
Color space : YUV
Chroma subsampling : 4:2:0
Bit depth : 8 bits
Scan type : Interlaced
Scan order : Bottom Field First
Compression mode : Lossy
Bits/(Pixel*Frame) : 0.559
Time code of first frame : 01:00:00:00
Time code source : Group of pictures header
Stream size : 719 MiB (70%)

Audio #1
ID : 189 (0xBD)-137 (0x89)
Format : DTS
Format/Info : Digital Theater Systems
Mode : 16
Format settings, Endianness : Big
Muxing mode : DVD-Video
Duration : 17mn 22s
Bit rate mode : Constant
Bit rate : 755 Kbps
Channel(s) : 6 channels
Channel positions : Front: L C R, Side: L R, LFE
Sampling rate : 48.0 KHz
Bit depth : 16 bits
Compression mode : Lossy
Stream size : 93.8 MiB (9%)

Audio #2
ID : 189 (0xBD)-160 (0xA0)
Format : PCM
Format settings, Endianness : Big
Format settings, Sign : Signed
Muxing mode : DVD-Video
Duration : 17mn 22s
Bit rate mode : Constant
Bit rate : 1 536 Kbps
Channel(s) : 2 channels
Sampling rate : 48.0 KHz
Bit depth : 16 bits
Stream size : 191 MiB (19%)

Menu

General
Complete name : E:\Mix\No-Man 2009 - Mixtaped\No-Man 2009 - Mixtaped - DVD1\VIDEO_TS\VTS_02_2.VOB
Format : MPEG-PS
File size : 1 024 MiB
Duration : 16mn 44s
Overall bit rate mode : Variable
Overall bit rate : 8 554 Kbps

Video
ID : 224 (0xE0)
Format : MPEG Video
Format version : Version 2
Format profile : Main@Main
Format settings, BVOP : Yes
Format settings, Matrix : Custom
Format settings, GOP : Variable
Duration : 16mn 43s
Bit rate mode : Variable
Bit rate : 6 093 Kbps
Maximum bit rate : 9 800 Kbps
Width : 720 pixels
Height : 480 pixels
Display aspect ratio : 16:9
Frame rate : 29.970 fps
Standard : NTSC
Color space : YUV
Chroma subsampling : 4:2:0
Bit depth : 8 bits
Scan type : Interlaced
Scan order : Bottom Field First
Compression mode : Lossy
Bits/(Pixel*Frame) : 0.588
Time code of first frame : 01:17:21:22
Time code source : Group of pictures header
Stream size : 729 MiB (71%)

Audio #1
ID : 189 (0xBD)-137 (0x89)
Format : DTS
Format/Info : Digital Theater Systems
Mode : 16
Format settings, Endianness : Big
Muxing mode : DVD-Video
Duration : 16mn 44s
Bit rate mode : Constant
Bit rate : 755 Kbps
Channel(s) : 6 channels
Channel positions : Front: L C R, Side: L R, LFE
Sampling rate : 48.0 KHz
Bit depth : 16 bits
Compression mode : Lossy
Delay relative to video : -517ms
Stream size : 90.3 MiB (9%)

Audio #2
ID : 189 (0xBD)-160 (0xA0)
Format : PCM
Format settings, Endianness : Big
Format settings, Sign : Signed
Muxing mode : DVD-Video
Duration : 16mn 44s
Bit rate mode : Constant
Bit rate : 1 536 Kbps
Channel(s) : 2 channels
Sampling rate : 48.0 KHz
Bit depth : 16 bits
Delay relative to video : -522ms
Stream size : 184 MiB (18%)

Menu

General
Complete name : E:\Mix\No-Man 2009 - Mixtaped\No-Man 2009 - Mixtaped - DVD1\VIDEO_TS\VTS_02_3.VOB
Format : MPEG-PS
File size : 1 024 MiB
Duration : 16mn 42s
Overall bit rate mode : Variable
Overall bit rate : 8 567 Kbps

Video
ID : 224 (0xE0)
Format : MPEG Video
Format version : Version 2
Format profile : Main@Main
Format settings, BVOP : Yes
Format settings, Matrix : Custom
Format settings, GOP : Variable
Duration : 16mn 42s
Bit rate mode : Variable
Bit rate : 6 106 Kbps
Maximum bit rate : 9 800 Kbps
Width : 720 pixels
Height : 480 pixels
Display aspect ratio : 16:9
Frame rate : 29.970 fps
Standard : NTSC
Color space : YUV
Chroma subsampling : 4:2:0
Bit depth : 8 bits
Scan type : Interlaced
Scan order : Bottom Field First
Compression mode : Lossy
Bits/(Pixel*Frame) : 0.590
Time code of first frame : 01:34:04:23
Time code source : Group of pictures header
Stream size : 730 MiB (71%)

Audio #1
ID : 189 (0xBD)-137 (0x89)
Format : DTS
Format/Info : Digital Theater Systems
Mode : 16
Format settings, Endianness : Big
Muxing mode : DVD-Video
Duration : 16mn 42s
Bit rate mode : Constant
Bit rate : 755 Kbps
Channel(s) : 6 channels
Channel positions : Front: L C R, Side: L R, LFE
Sampling rate : 48.0 KHz
Bit depth : 16 bits
Compression mode : Lossy
Delay relative to video : -329ms
Stream size : 90.2 MiB (9%)

Audio #2
ID : 189 (0xBD)-160 (0xA0)
Format : PCM
Format settings, Endianness : Big
Format settings, Sign : Signed
Muxing mode : DVD-Video
Duration : 16mn 42s
Bit rate mode : Constant
Bit rate : 1 536 Kbps
Channel(s) : 2 channels
Sampling rate : 48.0 KHz
Bit depth : 16 bits
Delay relative to video : -338ms
Stream size : 184 MiB (18%)

Menu

General
Complete name : E:\Mix\No-Man 2009 - Mixtaped\No-Man 2009 - Mixtaped - DVD1\VIDEO_TS\VTS_02_4.VOB
Format : MPEG-PS
File size : 1 024 MiB
Duration : 17mn 0s
Overall bit rate mode : Variable
Overall bit rate : 8 418 Kbps

Video
ID : 224 (0xE0)
Format : MPEG Video
Format version : Version 2
Format profile : Main@Main
Format settings, BVOP : Yes
Format settings, Matrix : Custom
Format settings, GOP : Variable
Duration : 17mn 0s
Bit rate mode : Variable
Bit rate : 5 960 Kbps
Maximum bit rate : 9 800 Kbps
Width : 720 pixels
Height : 480 pixels
Display aspect ratio : 16:9
Frame rate : 29.970 fps
Standard : NTSC
Color space : YUV
Chroma subsampling : 4:2:0
Bit depth : 8 bits
Scan type : Interlaced
Scan order : Bottom Field First
Compression mode : Lossy
Bits/(Pixel*Frame) : 0.575
Time code of first frame : 01:50:46:12
Time code source : Group of pictures header
Stream size : 725 MiB (71%)

Audio #1
ID : 189 (0xBD)-137 (0x89)
Format : DTS
Format/Info : Digital Theater Systems
Mode : 16
Format settings, Endianness : Big
Muxing mode : DVD-Video
Duration : 17mn 0s
Bit rate mode : Constant
Bit rate : 755 Kbps
Channel(s) : 6 channels
Channel positions : Front: L C R, Side: L R, LFE
Sampling rate : 48.0 KHz
Bit depth : 16 bits
Compression mode : Lossy
Delay relative to video : -307ms
Stream size : 91.8 MiB (9%)

Audio #2
ID : 189 (0xBD)-160 (0xA0)
Format : PCM
Format settings, Endianness : Big
Format settings, Sign : Signed
Muxing mode : DVD-Video
Duration : 17mn 0s
Bit rate mode : Constant
Bit rate : 1 536 Kbps
Channel(s) : 2 channels
Sampling rate : 48.0 KHz
Bit depth : 16 bits
Delay relative to video : -310ms
Stream size : 187 MiB (18%)

Menu

General
Complete name : E:\Mix\No-Man 2009 - Mixtaped\No-Man 2009 - Mixtaped - DVD1\VIDEO_TS\VTS_02_5.VOB
Format : MPEG-PS
File size : 1 024 MiB
Duration : 16mn 28s
Overall bit rate mode : Variable
Overall bit rate : 8 687 Kbps

Video
ID : 224 (0xE0)
Format : MPEG Video
Format version : Version 2
Format profile : Main@Main
Format settings, BVOP : Yes
Format settings, Matrix : Custom
Format settings, GOP : Variable
Duration : 16mn 28s
Bit rate mode : Variable
Bit rate : 6 223 Kbps
Maximum bit rate : 9 800 Kbps
Width : 720 pixels
Height : 480 pixels
Display aspect ratio : 16:9
Frame rate : 29.970 fps
Standard : NTSC
Color space : YUV
Chroma subsampling : 4:2:0
Bit depth : 8 bits
Scan type : Interlaced
Scan order : Bottom Field First
Compression mode : Lossy
Bits/(Pixel*Frame) : 0.601
Time code of first frame : 02:07:46:06
Time code source : Group of pictures header
Stream size : 733 MiB (72%)

Audio #1
ID : 189 (0xBD)-137 (0x89)
Format : DTS
Format/Info : Digital Theater Systems
Mode : 16
Format settings, Endianness : Big
Muxing mode : DVD-Video
Duration : 16mn 28s
Bit rate mode : Constant
Bit rate : 755 Kbps
Channel(s) : 6 channels
Channel positions : Front: L C R, Side: L R, LFE
Sampling rate : 48.0 KHz
Bit depth : 16 bits
Compression mode : Lossy
Delay relative to video : -658ms
Stream size : 88.9 MiB (9%)

Audio #2
ID : 189 (0xBD)-160 (0xA0)
Format : PCM
Format settings, Endianness : Big
Format settings, Sign : Signed
Muxing mode : DVD-Video
Duration : 16mn 28s
Bit rate mode : Constant
Bit rate : 1 536 Kbps
Channel(s) : 2 channels
Sampling rate : 48.0 KHz
Bit depth : 16 bits
Delay relative to video : -651ms
Stream size : 181 MiB (18%)

Menu

General
Complete name : E:\Mix\No-Man 2009 - Mixtaped\No-Man 2009 - Mixtaped - DVD1\VIDEO_TS\VTS_02_6.VOB
Format : MPEG-PS
File size : 434 MiB
Duration : 7mn 34s
Overall bit rate mode : Variable
Overall bit rate : 7 998 Kbps

Video
ID : 224 (0xE0)
Format : MPEG Video
Format version : Version 2
Format profile : Main@Main
Format settings, BVOP : Yes
Format settings, Matrix : Custom
Format settings, GOP : M=3, N=15
Duration : 7mn 34s
Bit rate mode : Variable
Bit rate : 5 548 Kbps
Maximum bit rate : 9 800 Kbps
Width : 720 pixels
Height : 480 pixels
Display aspect ratio : 16:9
Frame rate : 29.970 fps
Standard : NTSC
Color space : YUV
Chroma subsampling : 4:2:0
Bit depth : 8 bits
Scan type : Interlaced
Scan order : Bottom Field First
Compression mode : Lossy
Bits/(Pixel*Frame) : 0.536
Time code of first frame : 02:24:13:19
Time code source : Group of pictures header
Stream size : 301 MiB (69%)

Audio #1
ID : 189 (0xBD)-137 (0x89)
Format : DTS
Format/Info : Digital Theater Systems
Mode : 16
Format settings, Endianness : Big
Muxing mode : DVD-Video
Duration : 7mn 34s
Bit rate mode : Constant
Bit rate : 755 Kbps
Channel(s) : 6 channels
Channel positions : Front: L C R, Side: L R, LFE
Sampling rate : 48.0 KHz
Bit depth : 16 bits
Compression mode : Lossy
Delay relative to video : -237ms
Stream size : 40.9 MiB (9%)

Audio #2
ID : 189 (0xBD)-160 (0xA0)
Format : PCM
Format settings, Endianness : Big
Format settings, Sign : Signed
Muxing mode : DVD-Video
Duration : 7mn 34s
Bit rate mode : Constant
Bit rate : 1 536 Kbps
Channel(s) : 2 channels
Sampling rate : 48.0 KHz
Bit depth : 16 bits
Delay relative to video : -237ms
Stream size : 83.3 MiB (19%)

Menu

General
Complete name : E:\Mix\No-Man 2009 - Mixtaped\No-Man 2009 - Mixtaped - DVD1\VIDEO_TS\VTS_03_0.BUP
Format : DVD Video
Format profile : Program
File size : 20.0 KiB
Duration : 5mn 27s
Overall bit rate mode : Variable
Overall bit rate : 500 bps

Video
ID : 224 (0xE0)
Format : MPEG Video
Format version : Version 2
Duration : 5mn 27s
Bit rate mode : Variable
Width : 720 pixels
Height : 480 pixels
Display aspect ratio : 16:9
Frame rate : 29.970 fps
Standard : NTSC
Compression mode : Lossy

Audio
ID : 0 (0x0)
Format : PCM
Duration : 5mn 27s
Channel(s) : 2 channels
Sampling rate : 48.0 KHz

Menu
Duration : 5mn 27s
00:00:00.000 : Chapter 1
List (Audio) : 0

General
Complete name : E:\Mix\No-Man 2009 - Mixtaped\No-Man 2009 - Mixtaped - DVD1\VIDEO_TS\VTS_03_0.IFO
Format : DVD Video
Format profile : Program
File size : 20.0 KiB
Duration : 5mn 27s
Overall bit rate mode : Variable
Overall bit rate : 500 bps

Video
ID : 224 (0xE0)
Format : MPEG Video
Format version : Version 2
Duration : 5mn 27s
Bit rate mode : Variable
Width : 720 pixels
Height : 480 pixels
Display aspect ratio : 16:9
Frame rate : 29.970 fps
Standard : NTSC
Compression mode : Lossy

Audio
ID : 0 (0x0)
Format : PCM
Duration : 5mn 27s
Channel(s) : 2 channels
Sampling rate : 48.0 KHz

Menu
Duration : 5mn 27s
00:00:00.000 : Chapter 1
List (Audio) : 0

General
Complete name : E:\Mix\No-Man 2009 - Mixtaped\No-Man 2009 - Mixtaped - DVD1\VIDEO_TS\VTS_03_1.VOB
Format : MPEG-PS
File size : 287 MiB
Duration : 5mn 27s
Overall bit rate mode : Variable
Overall bit rate : 7 329 Kbps

Video
ID : 224 (0xE0)
Format : MPEG Video
Format version : Version 2
Format profile : Main@Main
Format settings, BVOP : Yes
Format settings, Matrix : Custom
Format settings, GOP : M=3, N=15
Duration : 5mn 27s
Bit rate mode : Variable
Bit rate : 5 647 Kbps
Maximum bit rate : 9 800 Kbps
Width : 720 pixels
Height : 480 pixels
Display aspect ratio : 16:9
Frame rate : 29.970 fps
Standard : NTSC
Color space : YUV
Chroma subsampling : 4:2:0
Bit depth : 8 bits
Scan type : Interlaced
Scan order : Bottom Field First
Compression mode : Lossy
Bits/(Pixel*Frame) : 0.545
Time code of first frame : 00:00:07:00
Time code source : Group of pictures header
Stream size : 221 MiB (77%)

Audio
ID : 189 (0xBD)-160 (0xA0)
Format : PCM
Format settings, Endianness : Big
Format settings, Sign : Signed
Muxing mode : DVD-Video
Duration : 5mn 27s
Bit rate mode : Constant
Bit rate : 1 536 Kbps
Channel(s) : 2 channels
Sampling rate : 48.0 KHz
Bit depth : 16 bits
Stream size : 60.1 MiB (21%)

Menu

General
Complete name : E:\Mix\No-Man 2009 - Mixtaped\No-Man 2009 - Mixtaped - DVD2\VIDEO_TS\VIDEO_TS.BUP
Format : DVD Video
Format profile : Menu
File size : 18.0 KiB
Overall bit rate mode : Variable

Video
ID : 224 (0xE0)
Format : MPEG Video
Format version : Version 2
Bit rate mode : Variable
Width : 720 pixels
Height : 480 pixels
Display aspect ratio : 16:9
Frame rate : 29.970 fps
Standard : NTSC
Compression mode : Lossy

Audio
Format : AC-3
Format/Info : Audio Coding 3
Channel(s) : 2 channels
Sampling rate : 48.0 KHz
Compression mode : Lossy

Text
Format : RLE
Format/Info : Run-length encoding
Bit depth : 2 bits

General
Complete name : E:\Mix\No-Man 2009 - Mixtaped\No-Man 2009 - Mixtaped - DVD2\VIDEO_TS\VIDEO_TS.IFO
Format : DVD Video
Format profile : Menu
File size : 18.0 KiB
Overall bit rate mode : Variable

Video
ID : 224 (0xE0)
Format : MPEG Video
Format version : Version 2
Bit rate mode : Variable
Width : 720 pixels
Height : 480 pixels
Display aspect ratio : 16:9
Frame rate : 29.970 fps
Standard : NTSC
Compression mode : Lossy

Audio
Format : AC-3
Format/Info : Audio Coding 3
Channel(s) : 2 channels
Sampling rate : 48.0 KHz
Compression mode : Lossy

Text
Format : RLE
Format/Info : Run-length encoding
Bit depth : 2 bits

General
Complete name : E:\Mix\No-Man 2009 - Mixtaped\No-Man 2009 - Mixtaped - DVD2\VIDEO_TS\VIDEO_TS.VOB
Format : MPEG-PS
File size : 3.33 MiB
Duration : 42s 720ms
Overall bit rate : 654 Kbps

Video
ID : 224 (0xE0)
Format : MPEG Video
Format version : Version 2
Format profile : Main@Main
Format settings, BVOP : No
Format settings, Matrix : Custom
Format settings, GOP : N=1
Duration : 123ms
Bit rate : 193 Kbps
Maximum bit rate : 9 000 Kbps
Width : 720 pixels
Height : 480 pixels
Display aspect ratio : 2.40:1
Frame rate : 29.970 fps
Standard : NTSC
Color space : YUV
Chroma subsampling : 4:2:0
Bit depth : 8 bits
Scan type : Progressive
Scan order : Top Field First
Compression mode : Lossy
Bits/(Pixel*Frame) : 0.019
Stream size : 3.14 KiB (0%)
Color primaries : BT.601 NTSC
Transfer characteristics : BT.601
Matrix coefficients : BT.601

Audio
ID : 189 (0xBD)-128 (0x80)
Format : AC-3
Format/Info : Audio Coding 3
Mode extension : CM (complete main)
Format settings, Endianness : Big
Muxing mode : DVD-Video
Duration : 42s 720ms
Bit rate mode : Constant
Bit rate : 448 Kbps
Channel(s) : 2 channels
Channel positions : Front: L R
Sampling rate : 48.0 KHz
Bit depth : 16 bits
Compression mode : Lossy
Stream size : 2.28 MiB (69%)

Text #1
ID : 189 (0xBD)-32 (0x20)
Format : RLE
Format/Info : Run-length encoding
Muxing mode : DVD-Video
Duration : 35ms

Text #2
ID : 189 (0xBD)-33 (0x21)
Format : RLE
Format/Info : Run-length encoding
Muxing mode : DVD-Video
Duration : 35ms

Menu

General
Complete name : E:\Mix\No-Man 2009 - Mixtaped\No-Man 2009 - Mixtaped - DVD2\VIDEO_TS\VTS_01_0.BUP
Format : DVD Video
Format profile : Program
File size : 18.0 KiB
Duration : 400ms
Overall bit rate mode : Variable
Overall bit rate : 369 Kbps

Video
ID : 224 (0xE0)
Format : MPEG Video
Format version : Version 2
Duration : 400ms
Bit rate mode : Variable
Width : 720 pixels
Height : 480 pixels
Display aspect ratio : 16:9
Frame rate : 29.970 fps
Standard : NTSC
Compression mode : Lossy

Audio
Format : AC-3
Format/Info : Audio Coding 3
Duration : 400ms
Channel(s) : 2 channels
Sampling rate : 48.0 KHz
Compression mode : Lossy

Menu #1

Menu #2
Duration : 400ms
00:00:00.000 : Chapter 1

General
Complete name : E:\Mix\No-Man 2009 - Mixtaped\No-Man 2009 - Mixtaped - DVD2\VIDEO_TS\VTS_01_0.IFO
Format : DVD Video
Format profile : Program
File size : 18.0 KiB
Duration : 400ms
Overall bit rate mode : Variable
Overall bit rate : 369 Kbps

Video
ID : 224 (0xE0)
Format : MPEG Video
Format version : Version 2
Duration : 400ms
Bit rate mode : Variable
Width : 720 pixels
Height : 480 pixels
Display aspect ratio : 16:9
Frame rate : 29.970 fps
Standard : NTSC
Compression mode : Lossy

Audio
Format : AC-3
Format/Info : Audio Coding 3
Duration : 400ms
Channel(s) : 2 channels
Sampling rate : 48.0 KHz
Compression mode : Lossy

Menu #1

Menu #2
Duration : 400ms
00:00:00.000 : Chapter 1

General
Complete name : E:\Mix\No-Man 2009 - Mixtaped\No-Man 2009 - Mixtaped - DVD2\VIDEO_TS\VTS_01_0.VOB
Format : MPEG-PS
File size : 12.5 MiB
Duration : 58s 784ms
Overall bit rate mode : Variable
Overall bit rate : 1 783 Kbps

Video
ID : 224 (0xE0)
Format : MPEG Video
Format version : Version 2
Format profile : Main@Main
Format settings, BVOP : Yes
Format settings, Matrix : Custom
Format settings, GOP : M=3, N=15
Duration : 16s 49ms
Bit rate mode : Variable
Bit rate : 1 300 Kbps
Maximum bit rate : 8 019 Kbps
Width : 720 pixels
Height : 480 pixels
Display aspect ratio : 16:9
Frame rate : 29.970 fps
Standard : NTSC
Color space : YUV
Chroma subsampling : 4:2:0
Bit depth : 8 bits
Scan type : Progressive
Scan order : Bottom Field First
Compression mode : Lossy
Bits/(Pixel*Frame) : 0.126
Time code of first frame : 00:00:00;00
Time code source : Group of pictures header
Stream size : 2.49 MiB (20%)
Color primaries : BT.601 NTSC
Transfer characteristics : BT.601
Matrix coefficients : BT.601

Audio
ID : 189 (0xBD)-128 (0x80)
Format : AC-3
Format/Info : Audio Coding 3
Mode extension : CM (complete main)
Format settings, Endianness : Big
Muxing mode : DVD-Video
Duration : 58s 784ms
Bit rate mode : Constant
Bit rate : 448 Kbps
Channel(s) : 2 channels
Channel positions : Front: L R
Sampling rate : 48.0 KHz
Bit depth : 16 bits
Compression mode : Lossy
Stream size : 3.14 MiB (25%)

Text #1
ID : 189 (0xBD)-32 (0x20)
Format : RLE
Format/Info : Run-length encoding
Muxing mode : DVD-Video

Text #2
ID : 189 (0xBD)-33 (0x21)
Format : RLE
Format/Info : Run-length encoding
Muxing mode : DVD-Video

Menu

General
Complete name : E:\Mix\No-Man 2009 - Mixtaped\No-Man 2009 - Mixtaped - DVD2\VIDEO_TS\VTS_01_1.VOB
File size : 10.1 MiB

General
Complete name : E:\Mix\No-Man 2009 - Mixtaped\No-Man 2009 - Mixtaped - DVD2\VIDEO_TS\VTS_02_0.BUP
Format : DVD Video
Format profile : Program
File size : 58.0 KiB
Duration : 1h 25mn
Overall bit rate mode : Variable
Overall bit rate : 93 bps

Video
ID : 224 (0xE0)
Format : MPEG Video
Format version : Version 2
Duration : 1h 25mn
Bit rate mode : Variable
Width : 720 pixels
Height : 480 pixels
Display aspect ratio : 16:9
Frame rate : 29.970 fps
Standard : NTSC
Compression mode : Lossy

Audio
ID : 128 (0x80)
Format : AC-3
Format/Info : Audio Coding 3
Duration : 1h 25mn
Channel(s) : 2 channels
Sampling rate : 48.0 KHz
Compression mode : Lossy

Menu #1
Duration : 1h 25mn
00:00:00.000 : Chapter 1
00:05:25.633 : Chapter 2
00:10:23.666 : Chapter 3
00:12:48.899 : Chapter 4
00:15:23.932 : Chapter 5
00:17:58.398 : Chapter 6
00:23:15.798 : Chapter 7
00:26:37.498 : Chapter 8
00:31:34.464 : Chapter 9
00:36:41.797 : Chapter 10
00:42:47.497 : Chapter 11
00:44:52.763 : Chapter 12
00:51:08.463 : Chapter 13
00:55:13.529 : Chapter 14
00:58:59.095 : Chapter 15
01:05:01.295 : Chapter 16
01:11:09.061 : Chapter 17
01:16:04.494 : Chapter 18
01:21:13.427 : Chapter 19
01:24:12.627 : Chapter 20
List (Audio) : 0

Menu #2
Duration : 400ms
00:00:00.000 : Chapter 1
List (Audio) : 0

General
Complete name : E:\Mix\No-Man 2009 - Mixtaped\No-Man 2009 - Mixtaped - DVD2\VIDEO_TS\VTS_02_0.IFO
Format : DVD Video
Format profile : Program
File size : 58.0 KiB
Duration : 1h 25mn
Overall bit rate mode : Variable
Overall bit rate : 93 bps

Video
ID : 224 (0xE0)
Format : MPEG Video
Format version : Version 2
Duration : 1h 25mn
Bit rate mode : Variable
Width : 720 pixels
Height : 480 pixels
Display aspect ratio : 16:9
Frame rate : 29.970 fps
Standard : NTSC
Compression mode : Lossy

Audio
ID : 128 (0x80)
Format : AC-3
Format/Info : Audio Coding 3
Duration : 1h 25mn
Channel(s) : 2 channels
Sampling rate : 48.0 KHz
Compression mode : Lossy

Menu #1
Duration : 1h 25mn
00:00:00.000 : Chapter 1
00:05:25.633 : Chapter 2
00:10:23.666 : Chapter 3
00:12:48.899 : Chapter 4
00:15:23.932 : Chapter 5
00:17:58.398 : Chapter 6
00:23:15.798 : Chapter 7
00:26:37.498 : Chapter 8
00:31:34.464 : Chapter 9
00:36:41.797 : Chapter 10
00:42:47.497 : Chapter 11
00:44:52.763 : Chapter 12
00:51:08.463 : Chapter 13
00:55:13.529 : Chapter 14
00:58:59.095 : Chapter 15
01:05:01.295 : Chapter 16
01:11:09.061 : Chapter 17
01:16:04.494 : Chapter 18
01:21:13.427 : Chapter 19
01:24:12.627 : Chapter 20
List (Audio) : 0

Menu #2
Duration : 400ms
00:00:00.000 : Chapter 1
List (Audio) : 0

General
Complete name : E:\Mix\No-Man 2009 - Mixtaped\No-Man 2009 - Mixtaped - DVD2\VIDEO_TS\VTS_02_1.VOB
Format : MPEG-PS
File size : 1 024 MiB
Duration : 22mn 23s
Overall bit rate mode : Variable
Overall bit rate : 6 394 Kbps

Video
ID : 224 (0xE0)
Format : MPEG Video
Format version : Version 2
Format profile : Main@Main
Format settings, BVOP : Yes
Format settings, Matrix : Custom
Format settings, GOP : M=3, N=15
Duration : 22mn 23s
Bit rate mode : Variable
Bit rate : 5 818 Kbps
Maximum bit rate : 9 800 Kbps
Width : 720 pixels
Height : 480 pixels
Display aspect ratio : 16:9
Frame rate : 29.970 fps
Standard : NTSC
Color space : YUV
Chroma subsampling : 4:2:0
Bit depth : 8 bits
Scan type : Interlaced
Scan order : Bottom Field First
Compression mode : Lossy
Bits/(Pixel*Frame) : 0.562
Time code of first frame : 00:00:00:00
Time code source : Group of pictures header
Stream size : 932 MiB (91%)

Audio
ID : 189 (0xBD)-128 (0x80)
Format : AC-3
Format/Info : Audio Coding 3
Mode extension : CM (complete main)
Format settings, Endianness : Big
Muxing mode : DVD-Video
Duration : 22mn 23s
Bit rate mode : Constant
Bit rate : 448 Kbps
Channel(s) : 2 channels
Channel positions : Front: L R
Sampling rate : 48.0 KHz
Bit depth : 16 bits
Compression mode : Lossy
Stream size : 71.7 MiB (7%)

Menu

General
Complete name : E:\Mix\No-Man 2009 - Mixtaped\No-Man 2009 - Mixtaped - DVD2\VIDEO_TS\VTS_02_2.VOB
Format : MPEG-PS
File size : 1 024 MiB
Duration : 20mn 20s
Overall bit rate mode : Variable
Overall bit rate : 7 036 Kbps

Video
ID : 224 (0xE0)
Format : MPEG Video
Format version : Version 2
Format profile : Main@Main
Format settings, BVOP : Yes
Format settings, Matrix : Custom
Format settings, GOP : Variable
Duration : 20mn 20s
Bit rate mode : Variable
Bit rate : 6 448 Kbps
Maximum bit rate : 9 800 Kbps
Width : 720 pixels
Height : 480 pixels
Display aspect ratio : 16:9
Frame rate : 29.970 fps
Standard : NTSC
Color space : YUV
Chroma subsampling : 4:2:0
Bit depth : 8 bits
Scan type : Interlaced
Scan order : Bottom Field First
Compression mode : Lossy
Bits/(Pixel*Frame) : 0.623
Time code of first frame : 00:22:22:11
Time code source : Group of pictures header
Stream size : 938 MiB (92%)

Audio
ID : 189 (0xBD)-128 (0x80)
Format : AC-3
Format/Info : Audio Coding 3
Mode extension : CM (complete main)
Format settings, Endianness : Big
Muxing mode : DVD-Video
Duration : 20mn 20s
Bit rate mode : Constant
Bit rate : 448 Kbps
Channel(s) : 2 channels
Channel positions : Front: L R
Sampling rate : 48.0 KHz
Bit depth : 16 bits
Compression mode : Lossy
Delay relative to video : -318ms
Stream size : 65.2 MiB (6%)

Menu

General
Complete name : E:\Mix\No-Man 2009 - Mixtaped\No-Man 2009 - Mixtaped - DVD2\VIDEO_TS\VTS_02_3.VOB
Format : MPEG-PS
File size : 1 024 MiB
Duration : 22mn 47s
Overall bit rate mode : Variable
Overall bit rate : 6 282 Kbps

Video
ID : 224 (0xE0)
Format : MPEG Video
Format version : Version 2
Format profile : Main@Main
Format settings, BVOP : Yes
Format settings, Matrix : Custom
Format settings, GOP : Variable
Duration : 22mn 47s
Bit rate mode : Variable
Bit rate : 5 709 Kbps
Maximum bit rate : 9 800 Kbps
Width : 720 pixels
Height : 480 pixels
Display aspect ratio : 16:9
Frame rate : 29.970 fps
Standard : NTSC
Color space : YUV
Chroma subsampling : 4:2:0
Bit depth : 8 bits
Scan type : Interlaced
Scan order : Bottom Field First
Compression mode : Lossy
Bits/(Pixel*Frame) : 0.551
Time code of first frame : 00:42:41:24
Time code source : Group of pictures header
Stream size : 930 MiB (91%)

Audio
ID : 189 (0xBD)-128 (0x80)
Format : AC-3
Format/Info : Audio Coding 3
Mode extension : CM (complete main)
Format settings, Endianness : Big
Muxing mode : DVD-Video
Duration : 22mn 47s
Bit rate mode : Constant
Bit rate : 448 Kbps
Channel(s) : 2 channels
Channel positions : Front: L R
Sampling rate : 48.0 KHz
Bit depth : 16 bits
Compression mode : Lossy
Delay relative to video : -236ms
Stream size : 73.0 MiB (7%)

Menu

General
Complete name : E:\Mix\No-Man 2009 - Mixtaped\No-Man 2009 - Mixtaped - DVD2\VIDEO_TS\VTS_02_4.VOB
Format : MPEG-PS
File size : 950 MiB
Duration : 19mn 55s
Overall bit rate mode : Variable
Overall bit rate : 6 668 Kbps

Video
ID : 224 (0xE0)
Format : MPEG Video
Format version : Version 2
Format profile : Main@Main
Format settings, BVOP : Yes
Format settings, Matrix : Custom
Format settings, GOP : Variable
Duration : 19mn 55s
Bit rate mode : Variable
Bit rate : 6 087 Kbps
Maximum bit rate : 9 800 Kbps
Width : 720 pixels
Height : 480 pixels
Display aspect ratio : 16:9
Frame rate : 29.970 fps
Standard : NTSC
Color space : YUV
Chroma subsampling : 4:2:0
Bit depth : 8 bits
Scan type : Interlaced
Scan order : Bottom Field First
Compression mode : Lossy
Bits/(Pixel*Frame) : 0.588
Time code of first frame : 01:05:27:21
Time code source : Group of pictures header
Stream size : 868 MiB (91%)

Audio
ID : 189 (0xBD)-128 (0x80)
Format : AC-3
Format/Info : Audio Coding 3
Mode extension : CM (complete main)
Format settings, Endianness : Big
Muxing mode : DVD-Video
Duration : 19mn 55s
Bit rate mode : Constant
Bit rate : 448 Kbps
Channel(s) : 2 channels
Channel positions : Front: L R
Sampling rate : 48.0 KHz
Bit depth : 16 bits
Compression mode : Lossy
Delay relative to video : -206ms
Stream size : 63.8 MiB (7%)

Menu

General
Complete name : E:\Mix\No-Man 2009 - Mixtaped\No-Man 2009 - Mixtaped - DVD2\VIDEO_TS\VTS_03_0.BUP
Format : DVD Video
Format profile : Program
File size : 18.0 KiB
Duration : 59s 33ms
Overall bit rate mode : Variable
Overall bit rate : 2 498 bps

Video
ID : 224 (0xE0)
Format : MPEG Video
Format version : Version 2
Duration : 59s 26ms
Bit rate mode : Variable
Width : 720 pixels
Height : 480 pixels
Display aspect ratio : 16:9
Frame rate : 29.970 fps
Standard : NTSC
Compression mode : Lossy

Audio
ID : 0 (0x0)
Format : PCM
Duration : 59s 33ms
Channel(s) : 2 channels
Sampling rate : 48.0 KHz

Menu #1
Duration : 36s 200ms
00:00:00.000 : Chapter 1
List (Audio) : 0

Menu #2
Duration : 59s 33ms
00:00:00.000 : Chapter 1
List (Audio) : 0

General
Complete name : E:\Mix\No-Man 2009 - Mixtaped\No-Man 2009 - Mixtaped - DVD2\VIDEO_TS\VTS_03_0.IFO
Format : DVD Video
Format profile : Program
File size : 18.0 KiB
Duration : 59s 33ms
Overall bit rate mode : Variable
Overall bit rate : 2 498 bps

Video
ID : 224 (0xE0)
Format : MPEG Video
Format version : Version 2
Duration : 59s 26ms
Bit rate mode : Variable
Width : 720 pixels
Height : 480 pixels
Display aspect ratio : 16:9
Frame rate : 29.970 fps
Standard : NTSC
Compression mode : Lossy

Audio
ID : 0 (0x0)
Format : PCM
Duration : 59s 33ms
Channel(s) : 2 channels
Sampling rate : 48.0 KHz

Menu #1
Duration : 36s 200ms
00:00:00.000 : Chapter 1
List (Audio) : 0

Menu #2
Duration : 59s 33ms
00:00:00.000 : Chapter 1
List (Audio) : 0

General
Complete name : E:\Mix\No-Man 2009 - Mixtaped\No-Man 2009 - Mixtaped - DVD2\VIDEO_TS\VTS_03_1.VOB
Format : MPEG-PS
File size : 87.4 MiB
Duration : 59s 92ms
Overall bit rate mode : Variable
Overall bit rate : 12.4 Mbps

Video
ID : 224 (0xE0)
Format : MPEG Video
Format version : Version 2
Format profile : Main@Main
Format settings, BVOP : Yes
Format settings, Matrix : Custom
Format settings, GOP : Variable
Duration : 59s 92ms
Bit rate mode : Variable
Bit rate : 10.6 Mbps
Maximum bit rate : 9 800 Kbps
Width : 720 pixels
Height : 480 pixels
Display aspect ratio : 16:9
Frame rate : 29.970 fps
Standard : NTSC
Color space : YUV
Chroma subsampling : 4:2:0
Bit depth : 8 bits
Scan type : Interlaced
Scan order : Bottom Field First
Compression mode : Lossy
Bits/(Pixel*Frame) : 1.026
Time code of first frame : 01:00:00:00
Time code source : Group of pictures header
Stream size : 74.8 MiB (86%)

Audio
ID : 189 (0xBD)-160 (0xA0)
Format : PCM
Format settings, Endianness : Big
Format settings, Sign : Signed
Muxing mode : DVD-Video
Duration : 59s 90ms
Bit rate mode : Constant
Bit rate : 1 536 Kbps
Channel(s) : 2 channels
Sampling rate : 48.0 KHz
Bit depth : 16 bits
Stream size : 10.8 MiB (12%)

Menu

General
Complete name : E:\Mix\No-Man 2009 - Mixtaped\No-Man 2009 - Mixtaped - DVD2\VIDEO_TS\VTS_04_0.BUP
Format : DVD Video
Format profile : Program
File size : 28.0 KiB
Duration : 6mn 30s
Overall bit rate mode : Variable
Overall bit rate : 588 bps

Video
ID : 224 (0xE0)
Format : MPEG Video
Format version : Version 2
Duration : 6mn 30s
Bit rate mode : Variable
Width : 720 pixels
Height : 480 pixels
Display aspect ratio : 4:3
Frame rate : 29.970 fps
Standard : NTSC
Compression mode : Lossy

Audio
ID : 0 (0x0)
Format : PCM
Duration : 6mn 30s
Channel(s) : 2 channels
Sampling rate : 48.0 KHz

Menu #1
Duration : 4mn 30s
00:00:00.000 : Chapter 1
00:04:30.366 : Chapter 2
List (Audio) : 0

Menu #2
Duration : 6mn 30s
00:00:00.000 : Chapter 1
00:06:29.000 : Chapter 2
List (Audio) : 0

Menu #3
Duration : 4mn 44s
00:00:00.000 : Chapter 1
00:04:43.633 : Chapter 2
List (Audio) : 0

Menu #4
Duration : 1mn 37s
00:00:00.000 : Chapter 1
00:01:37.066 : Chapter 2
List (Audio) : 0

General
Complete name : E:\Mix\No-Man 2009 - Mixtaped\No-Man 2009 - Mixtaped - DVD2\VIDEO_TS\VTS_04_0.IFO
Format : DVD Video
Format profile : Program
File size : 28.0 KiB
Duration : 6mn 30s
Overall bit rate mode : Variable
Overall bit rate : 588 bps

Video
ID : 224 (0xE0)
Format : MPEG Video
Format version : Version 2
Duration : 6mn 30s
Bit rate mode : Variable
Width : 720 pixels
Height : 480 pixels
Display aspect ratio : 4:3
Frame rate : 29.970 fps
Standard : NTSC
Compression mode : Lossy

Audio
ID : 0 (0x0)
Format : PCM
Duration : 6mn 30s
Channel(s) : 2 channels
Sampling rate : 48.0 KHz

Menu #1
Duration : 4mn 30s
00:00:00.000 : Chapter 1
00:04:30.366 : Chapter 2
List (Audio) : 0

Menu #2
Duration : 6mn 30s
00:00:00.000 : Chapter 1
00:06:29.000 : Chapter 2
List (Audio) : 0

Menu #3
Duration : 4mn 44s
00:00:00.000 : Chapter 1
00:04:43.633 : Chapter 2
List (Audio) : 0

Menu #4
Duration : 1mn 37s
00:00:00.000 : Chapter 1
00:01:37.066 : Chapter 2
List (Audio) : 0

General
Complete name : E:\Mix\No-Man 2009 - Mixtaped\No-Man 2009 - Mixtaped - DVD2\VIDEO_TS\VTS_04_1.VOB
Format : MPEG-PS
File size : 890 MiB
Duration : 1mn 38s
Overall bit rate mode : Variable
Overall bit rate : 76.2 Mbps
Writing library : © 1998-2008 Womble Multimedia, Inc. / MPEG Video Wizard (08/2008) / Dec 31 2008

Video
ID : 224 (0xE0)
Format : MPEG Video
Format version : Version 2
Format profile : Main@Main
Format settings, BVOP : Yes
Format settings, Matrix : Custom
Format settings, GOP : Variable
Duration : 1mn 37s
Bit rate mode : Variable
Bit rate : 73.1 Mbps
Maximum bit rate : 9 800 Kbps
Width : 720 pixels
Height : 480 pixels
Display aspect ratio : 4:3
Frame rate : 29.970 fps
Standard : NTSC
Color space : YUV
Chroma subsampling : 4:2:0
Bit depth : 8 bits
Scan type : Interlaced
Scan order : Bottom Field First
Compression mode : Lossy
Bits/(Pixel*Frame) : 7.058
Time code of first frame : 00:00:00;00
Time code source : Group of pictures header
Stream size : 853 MiB (96%)
Writing library : © 1998-2008 Womble Multimedia, Inc. / MPEG Video Wizard (08/2008) / Dec 31 2008

Audio
ID : 189 (0xBD)-160 (0xA0)
Format : PCM
Format settings, Endianness : Big
Format settings, Sign : Signed
Muxing mode : DVD-Video
Duration : 1mn 38s
Bit rate mode : Constant
Bit rate : 1 536 Kbps
Channel(s) : 2 channels
Sampling rate : 48.0 KHz
Bit depth : 16 bits
Stream size : 17.9 MiB (2%)

Menu

General
Complete name : E:\Mix\No-Man 2009 - Mixtaped\No-Man 2009 - Mixtaped - DVD2\VIDEO_TS\VTS_05_0.BUP
Format : DVD Video
Format profile : Program
File size : 20.0 KiB
Duration : 5mn 18s
Overall bit rate mode : Variable
Overall bit rate : 515 bps

Video
ID : 224 (0xE0)
Format : MPEG Video
Format version : Version 2
Duration : 5mn 18s
Bit rate mode : Variable
Width : 720 pixels
Height : 480 pixels
Display aspect ratio : 16:9
Frame rate : 29.970 fps
Standard : NTSC
Compression mode : Lossy

Audio
ID : 0 (0x0)
Format : PCM
Duration : 5mn 18s
Channel(s) : 2 channels
Sampling rate : 48.0 KHz

Menu
Duration : 5mn 18s
00:00:00.000 : Chapter 1
00:05:17.333 : Chapter 2
List (Audio) : 0

General
Complete name : E:\Mix\No-Man 2009 - Mixtaped\No-Man 2009 - Mixtaped - DVD2\VIDEO_TS\VTS_05_0.IFO
Format : DVD Video
Format profile : Program
File size : 20.0 KiB
Duration : 5mn 18s
Overall bit rate mode : Variable
Overall bit rate : 515 bps

Video
ID : 224 (0xE0)
Format : MPEG Video
Format version : Version 2
Duration : 5mn 18s
Bit rate mode : Variable
Width : 720 pixels
Height : 480 pixels
Display aspect ratio : 16:9
Frame rate : 29.970 fps
Standard : NTSC
Compression mode : Lossy

Audio
ID : 0 (0x0)
Format : PCM
Duration : 5mn 18s
Channel(s) : 2 channels
Sampling rate : 48.0 KHz

Menu
Duration : 5mn 18s
00:00:00.000 : Chapter 1
00:05:17.333 : Chapter 2
List (Audio) : 0

General
Complete name : E:\Mix\No-Man 2009 - Mixtaped\No-Man 2009 - Mixtaped - DVD2\VIDEO_TS\VTS_05_1.VOB
Format : MPEG-PS
File size : 292 MiB
Duration : 5mn 18s
Overall bit rate mode : Variable
Overall bit rate : 7 686 Kbps

Video
ID : 224 (0xE0)
Format : MPEG Video
Format version : Version 2
Format profile : Main@Main
Format settings, BVOP : Yes
Format settings, Matrix : Custom
Format settings, GOP : Variable
Duration : 5mn 18s
Bit rate mode : Variable
Bit rate : 5 997 Kbps
Maximum bit rate : 9 800 Kbps
Width : 720 pixels
Height : 480 pixels
Display aspect ratio : 16:9
Frame rate : 29.970 fps
Standard : NTSC
Color space : YUV
Chroma subsampling : 4:2:0
Bit depth : 8 bits
Scan type : Interlaced
Scan order : Bottom Field First
Compression mode : Lossy
Bits/(Pixel*Frame) : 0.579
Time code of first frame : 01:00:00:00
Time code source : Group of pictures header
Stream size : 228 MiB (78%)

Audio
ID : 189 (0xBD)-160 (0xA0)
Format : PCM
Format settings, Endianness : Big
Format settings, Sign : Signed
Muxing mode : DVD-Video
Duration : 5mn 18s
Bit rate mode : Constant
Bit rate : 1 536 Kbps
Channel(s) : 2 channels
Sampling rate : 48.0 KHz
Bit depth : 16 bits
Stream size : 58.3 MiB (20%)

Menu

General
Complete name : E:\Mix\No-Man 2009 - Mixtaped\No-Man 2009 - Mixtaped - DVD2\VIDEO_TS\VTS_06_0.BUP
Format : DVD Video
Format profile : Program
File size : 20.0 KiB
Duration : 5mn 18s
Overall bit rate mode : Variable
Overall bit rate : 515 bps

Video
ID : 224 (0xE0)
Format : MPEG Video
Format version : Version 2
Duration : 5mn 18s
Bit rate mode : Variable
Width : 720 pixels
Height : 480 pixels
Display aspect ratio : 16:9
Frame rate : 29.970 fps
Standard : NTSC
Compression mode : Lossy

Audio #1
ID : 136 (0x88)
Format : DTS
Format/Info : Digital Theater Systems
Duration : 5mn 18s
Channel(s) : 6 channels
Sampling rate : 48.0 KHz
Compression mode : Lossy

Audio #2
ID : 129 (0x81)
Format : AC-3
Format/Info : Audio Coding 3
Duration : 5mn 18s
Channel(s) : 2 channels
Sampling rate : 48.0 KHz
Compression mode : Lossy

Menu
Duration : 5mn 18s
00:00:00.000 : Chapter 1
00:05:17.333 : Chapter 2
List (Audio) : 0 / 1

General
Complete name : E:\Mix\No-Man 2009 - Mixtaped\No-Man 2009 - Mixtaped - DVD2\VIDEO_TS\VTS_06_0.IFO
Format : DVD Video
Format profile : Program
File size : 20.0 KiB
Duration : 5mn 18s
Overall bit rate mode : Variable
Overall bit rate : 515 bps

Video
ID : 224 (0xE0)
Format : MPEG Video
Format version : Version 2
Duration : 5mn 18s
Bit rate mode : Variable
Width : 720 pixels
Height : 480 pixels
Display aspect ratio : 16:9
Frame rate : 29.970 fps
Standard : NTSC
Compression mode : Lossy

Audio #1
ID : 136 (0x88)
Format : DTS
Format/Info : Digital Theater Systems
Duration : 5mn 18s
Channel(s) : 6 channels
Sampling rate : 48.0 KHz
Compression mode : Lossy

Audio #2
ID : 129 (0x81)
Format : AC-3
Format/Info : Audio Coding 3
Duration : 5mn 18s
Channel(s) : 2 channels
Sampling rate : 48.0 KHz
Compression mode : Lossy

Menu
Duration : 5mn 18s
00:00:00.000 : Chapter 1
00:05:17.333 : Chapter 2
List (Audio) : 0 / 1

General
Complete name : E:\Mix\No-Man 2009 - Mixtaped\No-Man 2009 - Mixtaped - DVD2\VIDEO_TS\VTS_06_1.VOB
Format : MPEG-PS
File size : 266 MiB
Duration : 5mn 18s
Overall bit rate mode : Variable
Overall bit rate : 7 001 Kbps

Video
ID : 224 (0xE0)
Format : MPEG Video
Format version : Version 2
Format profile : Main@Main
Format settings, BVOP : Yes
Format settings, Matrix : Custom
Format settings, GOP : Variable
Duration : 5mn 18s
Bit rate mode : Variable
Bit rate : 5 995 Kbps
Maximum bit rate : 9 800 Kbps
Width : 720 pixels
Height : 480 pixels
Display aspect ratio : 16:9
Frame rate : 29.970 fps
Standard : NTSC
Color space : YUV
Chroma subsampling : 4:2:0
Bit depth : 8 bits
Scan type : Interlaced
Scan order : Bottom Field First
Compression mode : Lossy
Bits/(Pixel*Frame) : 0.579
Time code of first frame : 01:00:00:00
Time code source : Group of pictures header
Stream size : 228 MiB (86%)

Audio #1
ID : 189 (0xBD)-129 (0x81)
Format : AC-3
Format/Info : Audio Coding 3
Mode extension : CM (complete main)
Format settings, Endianness : Big
Muxing mode : DVD-Video
Duration : 5mn 18s
Bit rate mode : Constant
Bit rate : 112 Kbps
Channel(s) : 2 channels
Channel positions : Front: L R
Sampling rate : 48.0 KHz
Bit depth : 16 bits
Compression mode : Lossy
Stream size : 4.25 MiB (2%)

Audio #2
ID : 189 (0xBD)-136 (0x88)
Format : DTS
Format/Info : Digital Theater Systems
Mode : 16
Format settings, Endianness : Big
Muxing mode : DVD-Video
Duration : 5mn 18s
Bit rate mode : Constant
Bit rate : 755 Kbps
Channel(s) : 6 channels
Channel positions : Front: L C R, Side: L R, LFE
Sampling rate : 48.0 KHz
Bit depth : 16 bits
Compression mode : Lossy
Stream size : 28.7 MiB (11%)

Menu

General
Complete name : E:\Mix\No-Man 2009 - Mixtaped\No-Man 2009 - Mixtaped - DVD2\VIDEO_TS\VTS_07_0.BUP
Format : DVD Video
Format profile : Program
File size : 18.0 KiB
Duration : 7s 200ms
Overall bit rate mode : Variable
Overall bit rate : 20.5 Kbps

Video
ID : 224 (0xE0)
Format : MPEG Video
Format version : Version 2
Duration : 7s 207ms
Bit rate mode : Variable
Bit rate : 12.8 Kbps
Width : 720 pixels
Height : 480 pixels
Display aspect ratio : 16:9
Frame rate : 29.970 fps
Standard : NTSC
Compression mode : Lossy
Bits/(Pixel*Frame) : 0.001
Stream size : 11.2 KiB (62%)

Menu
Duration : 7s 200ms
00:00:00.000 : Chapter 1
00:00:00.400 : Chapter 2
00:00:00.800 : Chapter 3
00:00:01.200 : Chapter 4
00:00:01.600 : Chapter 5
00:00:02.000 : Chapter 6
00:00:02.400 : Chapter 7
00:00:02.800 : Chapter 8
00:00:03.200 : Chapter 9
00:00:03.600 : Chapter 10
00:00:04.000 : Chapter 11
00:00:04.400 : Chapter 12
00:00:04.800 : Chapter 13
00:00:05.200 : Chapter 14
00:00:05.600 : Chapter 15
00:00:06.000 : Chapter 16
00:00:06.400 : Chapter 17
00:00:06.800 : Chapter 18

General
Complete name : E:\Mix\No-Man 2009 - Mixtaped\No-Man 2009 - Mixtaped - DVD2\VIDEO_TS\VTS_07_0.IFO
Format : DVD Video
Format profile : Program
File size : 18.0 KiB
Duration : 7s 200ms
Overall bit rate mode : Variable
Overall bit rate : 20.5 Kbps

Video
ID : 224 (0xE0)
Format : MPEG Video
Format version : Version 2
Duration : 7s 207ms
Bit rate mode : Variable
Bit rate : 12.8 Kbps
Width : 720 pixels
Height : 480 pixels
Display aspect ratio : 16:9
Frame rate : 29.970 fps
Standard : NTSC
Compression mode : Lossy
Bits/(Pixel*Frame) : 0.001
Stream size : 11.2 KiB (62%)

Menu
Duration : 7s 200ms
00:00:00.000 : Chapter 1
00:00:00.400 : Chapter 2
00:00:00.800 : Chapter 3
00:00:01.200 : Chapter 4
00:00:01.600 : Chapter 5
00:00:02.000 : Chapter 6
00:00:02.400 : Chapter 7
00:00:02.800 : Chapter 8
00:00:03.200 : Chapter 9
00:00:03.600 : Chapter 10
00:00:04.000 : Chapter 11
00:00:04.400 : Chapter 12
00:00:04.800 : Chapter 13
00:00:05.200 : Chapter 14
00:00:05.600 : Chapter 15
00:00:06.000 : Chapter 16
00:00:06.400 : Chapter 17
00:00:06.800 : Chapter 18

General
Complete name : E:\Mix\No-Man 2009 - Mixtaped\No-Man 2009 - Mixtaped - DVD2\VIDEO_TS\VTS_07_1.VOB
Format : MPEG-PS
File size : 2.60 MiB
Duration : 56ms
Overall bit rate : 389 Mbps

Video
ID : 224 (0xE0)
Format : MPEG Video
Format version : Version 2
Format profile : Main@Main
Format settings, BVOP : No
Format settings, Matrix : Custom
Format settings, GOP : N=1
Duration : 56ms
Maximum bit rate : 9 000 Kbps
Width : 720 pixels
Height : 480 pixels
Display aspect ratio : 2.40:1
Frame rate : 29.970 fps
Standard : NTSC
Color space : YUV
Chroma subsampling : 4:2:0
Bit depth : 8 bits
Scan type : Progressive
Scan order : Top Field First
Compression mode : Lossy
Color primaries : BT.601 NTSC
Transfer characteristics : BT.601
Matrix coefficients : BT.601

Menu



No-Man - Mixtaped (2009) [2xDVD + CD]

No-Man - Mixtaped (2009) [2xDVD + CD]

No-Man - Mixtaped (2009) [2xDVD + CD]

No-Man - Mixtaped (2009) [2xDVD + CD]

No-Man - Mixtaped (2009) [2xDVD + CD]

No-Man - Mixtaped (2009) [2xDVD + CD]

All thanks go to Marv344425

No-Man or No-Man in my Blog

Download No-Man - Mixtaped (2009):