Tags
Language
Tags

Nuria Rial, Michi Gaigg, L’Orfeo Barockorchester - Handel: Armida abbandonata, Opera Arias; Aufschnaiter, Muffat (2004)

Posted By:
Nuria Rial, Michi Gaigg, L’Orfeo Barockorchester - Handel: Armida abbandonata, Opera Arias; Aufschnaiter, Muffat (2004)

Nuria Rial, Michi Gaigg, L’Orfeo Barockorchester - Handel: Armida abbandonata, Opera Arias; Aufschnaiter, Muffat (2004)
EAC | FLAC | Image (Cue & Log) ~ 304 Mb | Total time: 57:54 | Scans included
Classical | Label: ORF | ORF CD 369 | Recorded: 2004

Georg Friedrich Händel wrote musical history with his operas. In his chosen domicile, London, he had to fight off italian competition, but having already studied their style in Rome he was well-equipped to mount the most important of the world's stages.
Of course Händel was usually able to go all out and engage the best singers from far and wide for his productions. Incidentally, he often arranged the music to suit the particular virtuosi who happened to be available, thereby transmitting his characteristic theatrical passion directly into the hearts of th epuplic.

Performer:
Núria Rial, Sopran
L’Orfeo Barockorchester
Michi Gaigg, Leitung & Violine

Track List:
Benedikt Anton Aufschnaiter (1665 - 1742)
01. Entrée aus der Serenade Nr. 5 à 5 F-Dur
Georg Friedrich Händel (1685 - 1759)
02-08. Armida abbandonata. Cantata a voce Sola con Stromenti
Benedikt Anton Aufschnaiter (1665 - 1742)
09. Passacaglia. Adagio aus der Serenade Nr. 5 à 5 F-Dur
Georg Muffat (1653 - 1704)
10-12. Sonata V G-Dur
Georg Friedrich Händel (1685 - 1759)
13. Recitativo: E pur così in un giorno
14. Aria: Piangerò la sorte mia
Georg Muffat (1653 - 1704)
15. Sonata V G-Dur: Adagio
Georg Friedrich Händel (1685 - 1759)
16. Recitativo accompagnato: Ah! Ruggiero crudel
17. Aria: Ombre pallide
Georg Muffat (1653 - 1704)
18. Sonata V G-Dur: Passacaglia
Georg Friedrich Händel (1685 - 1759)
19. Aria: Bel piacere è godere fido amor


Exact Audio Copy V1.3 from 2. September 2016

EAC extraction logfile from 17. January 2020, 14:57

Nuria Rial; Michi Gaigg / Handel - [Nuria Rial recital]

Used drive : ATAPI iHAS124 F Adapter: 1 ID: 0

Read mode : Secure
Utilize accurate stream : Yes
Defeat audio cache : Yes
Make use of C2 pointers : No

Read offset correction : 6
Overread into Lead-In and Lead-Out : No
Fill up missing offset samples with silence : Yes
Delete leading and trailing silent blocks : No
Null samples used in CRC calculations : Yes
Used interface : Native Win32 interface for Win NT & 2000

Used output format : User Defined Encoder
Selected bitrate : 1024 kBit/s
Quality : High
Add ID3 tag : No
Command line compressor : C:\Program Files (x86)\Exact Audio Copy\FLAC\FLAC.EXE
Additional command line options : -6 -V -T "ARTIST=%artist%" -T "TITLE=%title%" -T "ALBUM=%albumtitle%" -T "DATE=%year%" -T "TRACKNUMBER=%tracknr%" -T "GENRE=%genre%" -T "COMMENT=%comment%" -T "BAND=%albuminterpret%" -T "ALBUMARTIST=%albuminterpret%" -T "COMPOSER=%composer%" %haslyrics%–tag-from-file=LYRICS="%lyricsfile%"%haslyrics% -T "DISCNUMBER=%cdnumber%" -T "TOTALDISCS=%totalcds%" -T "TOTALTRACKS=%numtracks%" %hascover%–picture="%coverfile%"%hascover% %source% -o %dest%


TOC of the extracted CD

Track | Start | Length | Start sector | End sector
––––––––––––––––––––––––––––-
1 | 0:00.00 | 1:41.03 | 0 | 7577
2 | 1:41.03 | 1:09.19 | 7578 | 12771
3 | 2:50.22 | 5:04.29 | 12772 | 35600
4 | 7:54.51 | 0:24.40 | 35601 | 37440
5 | 8:19.16 | 0:52.52 | 37441 | 41392
6 | 9:11.68 | 2:34.36 | 41393 | 52978
7 | 11:46.29 | 1:08.61 | 52979 | 58139
8 | 12:55.15 | 4:28.15 | 58140 | 78254
9 | 17:23.30 | 4:02.02 | 78255 | 96406
10 | 21:25.32 | 3:24.46 | 96407 | 111752
11 | 24:50.03 | 1:48.49 | 111753 | 119901
12 | 26:38.52 | 1:40.02 | 119902 | 127403
13 | 28:18.54 | 0:51.04 | 127404 | 131232
14 | 29:09.58 | 5:51.45 | 131233 | 157602
15 | 35:01.28 | 3:17.55 | 157603 | 172432
16 | 38:19.08 | 2:31.48 | 172433 | 183805
17 | 40:50.56 | 6:45.39 | 183806 | 214219
18 | 47:36.20 | 7:47.56 | 214220 | 249300
19 | 55:24.01 | 2:28.69 | 249301 | 260469


Range status and errors

Selected range

Filename C:\EACRip\HANDEL\00 - CANTATAS\Handel - Armida abbandonata. Opera Arias (Nuria Rial, Michi Gaigg) (2014)\Handel - Armida abbandonata. Opera arias - Nuria Rial, Michi Gaigg.wav

Peak level 100.0 %
Extraction speed 8.4 X
Range quality 100.0 %
Test CRC 3FDE30C5
Copy CRC 3FDE30C5
Copy OK

No errors occurred


AccurateRip summary

Track 1 cannot be verified as accurate (confidence 2) [B958E033], AccurateRip returned [5DFF8D72] (AR v2)
Track 2 cannot be verified as accurate (confidence 2) [CA91AF2D], AccurateRip returned [93D307B3] (AR v2)
Track 3 cannot be verified as accurate (confidence 2) [244EB214], AccurateRip returned [F9EA6F17] (AR v2)
Track 4 cannot be verified as accurate (confidence 2) [6B9AC879], AccurateRip returned [C76EF6FB] (AR v2)
Track 5 cannot be verified as accurate (confidence 2) [C3C78AC2], AccurateRip returned [706E03E2] (AR v2)
Track 6 cannot be verified as accurate (confidence 2) [40C15CC3], AccurateRip returned [A983CA4E] (AR v2)
Track 7 cannot be verified as accurate (confidence 2) [BE2D612C], AccurateRip returned [2AE0F3B1] (AR v2)
Track 8 cannot be verified as accurate (confidence 2) [4AC44786], AccurateRip returned [F2301A05] (AR v2)
Track 9 cannot be verified as accurate (confidence 2) [89F67B00], AccurateRip returned [0FF7F99C] (AR v2)
Track 10 cannot be verified as accurate (confidence 2) [7321F4CE], AccurateRip returned [308B8481] (AR v2)
Track 11 cannot be verified as accurate (confidence 2) [9348FC09], AccurateRip returned [C3DCF400] (AR v2)
Track 12 cannot be verified as accurate (confidence 2) [27938D0F], AccurateRip returned [5004C2E4] (AR v2)
Track 13 cannot be verified as accurate (confidence 2) [53013698], AccurateRip returned [3BD65CF2] (AR v2)
Track 14 cannot be verified as accurate (confidence 2) [147DACCC], AccurateRip returned [C41C04FA] (AR v2)
Track 15 cannot be verified as accurate (confidence 2) [1CC77D47], AccurateRip returned [15D28D90] (AR v2)
Track 16 cannot be verified as accurate (confidence 2) [B6C6D2B6], AccurateRip returned [F221133D] (AR v2)
Track 17 cannot be verified as accurate (confidence 2) [717146D8], AccurateRip returned [809771B2] (AR v2)
Track 18 accurately ripped (confidence 1) [81AB46A4] (AR v2)
Track 19 cannot be verified as accurate (confidence 2) [AD114E29], AccurateRip returned [86792648] (AR v2)

1 track(s) accurately ripped
18 track(s) could not be verified as accurate

Some tracks could not be verified as accurate

End of status report

–– CUETools DB Plugin V2.1.6

[CTDB TOCID: 3sv216y5pJV6.tgF1kIEtVzDWnU-] found
Submit result: 3sv216y5pJV6.tgF1kIEtVzDWnU- has been confirmed
Track | CTDB Status
1 | (3/3) Accurately ripped
2 | (3/3) Accurately ripped
3 | (3/3) Accurately ripped
4 | (3/3) Accurately ripped
5 | (3/3) Accurately ripped
6 | (3/3) Accurately ripped
7 | (3/3) Accurately ripped
8 | (3/3) Accurately ripped
9 | (3/3) Accurately ripped
10 | (3/3) Accurately ripped
11 | (3/3) Accurately ripped
12 | (3/3) Accurately ripped
13 | (3/3) Accurately ripped
14 | (3/3) Accurately ripped
15 | (3/3) Accurately ripped
16 | (3/3) Accurately ripped
17 | (3/3) Accurately ripped
18 | (3/3) Accurately ripped
19 | (3/3) Accurately ripped


==== Log checksum D10925ADCDC2C0B8F9402594C1537B8025D1F14B9C3A5F04CE1357E477599F49 ====

Nuria Rial, Michi Gaigg, L’Orfeo Barockorchester - Handel: Armida abbandonata, Opera Arias; Aufschnaiter, Muffat (2004)

Thanks to the original releaser