Subcategories
Tags
Language
Tags

Nusrat Fateh Ali Khan & Michael Brook - Night Song (1996) REPOST

Posted By: uff
Nusrat Fateh Ali Khan & Michael Brook - Night Song (1996) REPOST

Nusrat Fateh Ali Khan & Michael Brook - Night Song (1996)
World | 1cd | EAC Rip | Flac + Cue + Log | covers
Real World/Caroline, Carol 2354-2 | rel: 1996 | 325Mb

Canadian guitarist Michael Brook worked with Nusrat to create the 1990 crossover hit Mustt Mustt, and the release was hailed internationally and credited with leading Pakistani youth to discover Sufi religious music, qawwali. This follow-up project helped establish something of a tradition for Real World crossover projects. The genre features dreamy, atmospheric keyboards and guitars, simple, mid-tempo rhythms, and a kind of low-key understatement that, depending on your point of view, sounds either profoundly mystical or else tedious and bland. With West African kora and electronic backing and Nusrat singing in a relaxed mid-range voice, the opener "My Heart, My Life" sounds almost like a Salif Keita ballad as it works up to its energized closing chant. "My Comfort Remains" and "Crest" are essentially pop numbers with catchy melodies, the former bouncy but static, the latter building towards a revelatory crescendo. Not until the fifth of eight tracks, "Longing," do we hear Nusrat's signature scat singing and his singular wail, unmistakable even when lavished with effects. "Sweet Pain" might be the strongest track, beginning deep in dream space with a wandering bassline and a simple backbeat, and then heating up to powerful close with Nusrat delivering spitfire scat. Wherever you stand on Real World's arty aesthetics, you have to admire the qawwali star's sense of adventure here. You also have to recognize that no crossover project, including Nusrat's far more fun collaboration with London DJ Bally Sagoo, approaches the power of his standard fare qawwali. ~Allmusic

Track listing
01. My Heart, My Life (5:30)
02. Intoxicated (7:33)
03. Lament (5:15)
04. My Comfort Remains (6:39)
05. Longing (5:35)
06. Sweet Pain (6:27)
07. Night Song (4:48)
08. Crest (6:15)


Exact Audio Copy V0.99 prebeta 4 from 23. January 2008

EAC extraction logfile from 15. April 2008, 20:55

Nusrat Fateh Ali Khan & Michael Brook / Night Song

Used drive : PLEXTOR DVDR PX-760A Adapter: 4 ID: 0

Read mode : Secure
Utilize accurate stream : Yes
Defeat audio cache : Yes
Make use of C2 pointers : No

Read offset correction : 30
Overread into Lead-In and Lead-Out : Yes
Fill up missing offset samples with silence : Yes
Delete leading and trailing silent blocks : No
Null samples used in CRC calculations : No
Used interface : Native Win32 interface for Win NT & 2000

Used output format : Internal WAV Routines
Sample format : 44.100 Hz; 16 Bit; Stereo


TOC of the extracted CD

Track | Start | Length | Start sector | End sector
––––––––––––––––––––––––––––-
1 | 0:00.30 | 5:30.53 | 30 | 24832
2 | 5:31.08 | 7:33.57 | 24833 | 58864
3 | 13:04.65 | 5:15.24 | 58865 | 82513
4 | 18:20.14 | 6:39.56 | 82514 | 112494
5 | 24:59.70 | 5:35.74 | 112495 | 137693
6 | 30:35.69 | 6:27.71 | 137694 | 166789
7 | 37:03.65 | 4:48.00 | 166790 | 188389
8 | 41:51.65 | 6:15.34 | 188390 | 216548


Range status and errors

Selected range

Filename H:\!Audio\Nusrat Fateh Ali Khan & Michael Brook - Night Song.wav

Peak level 98.6 %
Range quality 99.9 %
Copy CRC C34A382E
Copy OK

No errors occurred


AccurateRip summary

Track 1 accurately ripped (confidence 8) [8D00B189]
Track 2 accurately ripped (confidence 8) [6311D61F]
Track 3 accurately ripped (confidence 8) [E239C8D5]
Track 4 accurately ripped (confidence 8) [4ACE52A5]
Track 5 accurately ripped (confidence 8) [2B3AE327]
Track 6 accurately ripped (confidence 8) [C4E42C1D]
Track 7 accurately ripped (confidence 8) [CA48517E]
Track 8 accurately ripped (confidence 8) [C1B8A051]

All tracks accurately ripped

End of status report



[CUETools log; Date: 2017. 02. 16. 8:21:27; Version: 2.1.6]
Pregap length 00:00:30.
[CTDB TOCID: de.4nxmBB7pa2YAtTfbIQPaZNnY-] found.
Track | CTDB Status
1 | (32/32) Accurately ripped
2 | (32/32) Accurately ripped
3 | (32/32) Accurately ripped
4 | (32/32) Accurately ripped
5 | (32/32) Accurately ripped
6 | (31/32) Accurately ripped
7 | (32/32) Accurately ripped
8 | (32/32) Accurately ripped
[AccurateRip ID: 000f1400-00643a81-540b4708] found.
Track [ CRC | V2 ] Status
01 [8d00b189|6c268b1b] (47+46/93) Accurately ripped
02 [6311d61f|ea532c27] (48+45/93) Accurately ripped
03 [e239c8d5|18d88ba7] (48+46/94) Accurately ripped
04 [4ace52a5|8a7a07f6] (48+46/94) Accurately ripped
05 [2b3ae327|0f4261b1] (48+46/94) Accurately ripped
06 [c4e42c1d|53f5b9d8] (48+46/94) Accurately ripped
07 [ca48517e|78e97704] (48+45/93) Accurately ripped
08 [c1b8a051|03f7207f] (48+44/92) Accurately ripped

Track Peak [ CRC32 ] [W/O NULL] [ LOG ]
– 98,6 [79DDB392] [C34A382E] W/O NULL
01 98,5 [7E514A7C] [263CBCEF]
02 98,2 [143FBEA8] [5594D3DD]
03 93,7 [62F8028B] [E78AAC6F]
04 98,6 [26F1A17F] [A8877ABF]
05 95,5 [3C2AD7E0] [DB87285C]
06 97,7 [951002D3] [09FDBD68]
07 66,2 [2ADFA457] [32692FA9]
08 98,6 [35243F97] [53729185]


Thx to almouse