Subcategories
Tags
Language
Tags

Octopus - Thærie Wiighen (1981) [Reissue 2021]

Posted By: gribovar
Octopus - Thærie Wiighen (1981) [Reissue 2021]

Octopus - Thaerie Wiighen (1981) [Reissue 2021]
EAC Rip | FLAC (image+.cue+log) - 284 MB | MP3 CBR 320 kbps (LAME 3.93) - 108 MB | Covers - 147 MB
Genre: Progressive Rock | RAR 3% Rec. | Label: Norske Albumklassikere (NACD059)

Octopus from Norway (don't be confused to countless bands with same name) was and is an obscure prog band gone unnoticed in prog circles. They released only one album in 1981 named Thaerie Wiighen (taken the name from a hero from literature of famous norwegian writer Henrik Ibsen). There is not much to find about this band or when they were disbanded. The music offered is pretty good all the way, symphonic prog with a nordic feel very similar in places with Bo Hansson releases , with some spacey moments here and there with an Eloy atmosphere, lots of instrumental sections aswell. Excellent are the keyboards passages very reminescent of Rick Wakeman or Genesis, some parts remind of Kerrs Pink. All in all a very solid album gone under the radar, definetly worth checking.

Tracklist:
01. Ouverture - Del 1: Havet
02. Del 2: Krigen
03. Del 3: Flukten
04. Del 4: Prisonen
05. Del 5: Hevnen
06. Del 6: Forloesningen
07. Del 7: Erkjennelsen
08. Del 8: Epilog

Total time: 45:54

Exact Audio Copy V1.3 from 2. September 2016

Отчёт EAC об извлечении, выполненном 17. июня 2021, 19:31

Octopus / Thaerie Wiighen

Дисковод: HL-DT-STDVDRAM GT70N Adapter: 1 ID: 0

Режим чтения : Достоверность
Использование точного потока : Да
Отключение кэша аудио : Да
Использование указателей C2 : Нет

Коррекция смещения при чтении : 103
Способность читать области Lead-in и Lead-out : Нет
Заполнение пропущенных сэмплов тишиной : Да
Удаление блоков с тишиной в начале и конце : Нет
При вычислениях CRC использовались нулевые сэмплы : Да
Интерфейс : Встроенный Win32-интерфейс для Win NT/2000

Выходной формат : Пользовательский кодировщик
Выбранный битрейт : 1024 kBit/s
Качество : Высокий
Добавление ID3-тега : Нет
Утилита сжатия : C:\Program Files (x86)\Exact Audio Copy\Flac\flac.exe
Дополнительные параметры : -V -8 -T "Date=%year%" -T "Genre=%genre%" %source%


TOC извлечённого CD

Трек | Старт | Длительность | Начальный сектор | Конечный сектор
––––––––––––––––––––––––––––––––––-
1 | 0:00.00 | 9:24.39 | 0 | 42338
2 | 9:24.39 | 5:32.26 | 42339 | 67264
3 | 14:56.65 | 7:34.31 | 67265 | 101345
4 | 22:31.21 | 3:23.27 | 101346 | 116597
5 | 25:54.48 | 5:23.38 | 116598 | 140860
6 | 31:18.11 | 3:30.46 | 140861 | 156656
7 | 34:48.57 | 5:59.09 | 156657 | 183590
8 | 40:47.66 | 5:06.45 | 183591 | 206585


Характеристики диапазона извлечения и сообщения об ошибках

Выбранный диапазон

Имя файла L:\CD\Octopus - Thaerie Wiighen\Octopus - Thaerie Wiighen.wav

Пиковый уровень 96.6 %
Скорость извлечения 4.5 X
Качество диапазона 100.0 %
CRC теста 766C89D4
CRC копии 766C89D4
Копирование… OK

Ошибок не произошло


AccurateRip: сводка

Трек 1 : извлечено точно (доверие 1) [9969032F] (AR v2)
Трек 2 : извлечено точно (доверие 1) [82D14A25] (AR v2)
Трек 3 : извлечено точно (доверие 1) [B5B16EF7] (AR v2)
Трек 4 : извлечено точно (доверие 1) [60D08D57] (AR v2)
Трек 5 : извлечено точно (доверие 1) [F3364DA3] (AR v2)
Трек 6 : извлечено точно (доверие 1) [B5E27247] (AR v2)
Трек 7 : извлечено точно (доверие 1) [7DB89355] (AR v2)
Трек 8 : извлечено точно (доверие 1) [A62267B3] (AR v2)

Все треки извлечены точно

Конец отчёта

–– CUETools DB Plugin V2.1.6

[CTDB TOCID: CrfLCEJa7PmTVaHkzPioYsPb1dI-] found
Submit result: CrfLCEJa7PmTVaHkzPioYsPb1dI- has been confirmed
Track | CTDB Status
1 | (1/1) Accurately ripped
2 | (1/1) Accurately ripped
3 | (1/1) Accurately ripped
4 | (1/1) Accurately ripped
5 | (1/1) Accurately ripped
6 | (1/1) Accurately ripped
7 | (1/1) Accurately ripped
8 | (1/1) Accurately ripped


==== Контрольная сумма отчёта A012B3BFF75952F76485DE5CD6DFBD452E90476BAE3B8BACC3AA57ED12A19C21 ====

[CUETools log; Date: 18.06.2021 11:11:59; Version: 2.1.4]
[CTDB TOCID: CrfLCEJa7PmTVaHkzPioYsPb1dI-] found.
Track | CTDB Status
1 | (2/2) Accurately ripped
2 | (2/2) Accurately ripped
3 | (2/2) Accurately ripped
4 | (2/2) Accurately ripped
5 | (2/2) Accurately ripped
6 | (2/2) Accurately ripped
7 | (2/2) Accurately ripped
8 | (2/2) Accurately ripped
[AccurateRip ID: 000f7dcb-0063dce7-780ac208] found.
Track [ CRC | V2 ] Status
01 [a4989d3d|9969032f] (0+1/1) Accurately ripped
02 [40ea5e44|82d14a25] (0+1/1) Accurately ripped
03 [8b38b4b7|b5b16ef7] (0+1/1) Accurately ripped
04 [69e80ed4|60d08d57] (0+1/1) Accurately ripped
05 [de27ac21|f3364da3] (0+1/1) Accurately ripped
06 [fc52c6aa|b5e27247] (0+1/1) Accurately ripped
07 [064497c4|7db89355] (0+1/1) Accurately ripped
08 [90b2d2a2|a62267b3] (0+1/1) Accurately ripped

Track Peak [ CRC32 ] [W/O NULL] [ LOG ]
– 96,6 [766C89D4] [5FCB20B3] CRC32
01 96,6 [EF6AF953] [2DE9BB88]
02 96,6 [2D1717C0] [77E4B1F9]
03 96,6 [64598F3B] [5C8A1D80]
04 96,6 [81996A53] [4187D270]
05 96,6 [B3898528] [6D780D92]
06 96,6 [274F6D46] [C7B69180]
07 96,6 [3C295819] [C707ED73]
08 96,6 [9876A832] [64B6C942]

Thanks to Verbizki66