Ohio Players ‎- Everybody Up (1979) [2013 FTG]

Posted By: JET 1
Ohio Players ‎- Everybody Up (1979) [2013 FTG]

Ohio Players ‎- Everybody Up (1979) [2013 FTG]
EAC Rip | FLAC (Tracks) +CUE, LOG | 467 MB | Covers Included
Funk | Label: Funkytowngrooves | Catalog Number: FTG-360

First Time on CD for The Ohio Players 1979 album "Everybody Up"

Re-Mastered from the ORIGINAL MASTER TAPES at Battery Studio’s New York by Sony’s Sean Brennan. Liner Notes by Alex Henderson

Dayton funk giants The Ohio Players ended the 1970’s on a disco-flavoured note with 1979’s “Everybody Up”, which was their only album for Arista Records.

Funk was popular all over the United States during the 1970’s, but one state that was especially famous for its hardcore funk bands was Ohio.

“Everybody Up” is disco-minded more often than not—and stylistically. The lead vocals of Bonner and Beck are as recognizable as ever, and the Ohio Players still sound like the Ohio Players.

“Everybody Up” is a smooth album from start to finish.

Exact Audio Copy V1.0 beta 3 from 29. August 2011

EAC extraction logfile from 16. November 2014, 10:19

The Ohio Players / Everybody Up + Bonus Tracks

Used drive : GENERIC CDRCB05 Adapter: 4 ID: 0

Read mode : Secure
Utilize accurate stream : Yes
Defeat audio cache : Yes
Make use of C2 pointers : No

Read offset correction : 102
Overread into Lead-In and Lead-Out : No
Fill up missing offset samples with silence : Yes
Delete leading and trailing silent blocks : No
Null samples used in CRC calculations : Yes
Used interface : Native Win32 interface for Win NT & 2000
Gap handling : Appended to previous track

Used output format : User Defined Encoder
Selected bitrate : 1024 kBit/s
Quality : High
Add ID3 tag : No
Command line compressor : C:\Program Files\FLAC\flac.exe
Additional command line options : -8 -V -T "ARTIST=%artist%" -T "TITLE=%title%" -T "ALBUM=%albumtitle%" -T "DATE=%year%" -T "TRACKNUMBER=%tracknr%" -T "GENRE=%genre%" -T "PERFORMER=%albuminterpret%" -T "COMPOSER=%composer%" %haslyrics%–tag-from-file=LYRICS="%lyricsfile%"%haslyrics% -T "ALBUMARTIST=%albumartist%" -T "DISCNUMBER=%cdnumber%" -T "TOTALDISCS=%totalcds%" -T "TOTALTRACKS=%numtracks%" -T "COMMENT=%comment%" %source% -o %dest%


TOC of the extracted CD

Track | Start | Length | Start sector | End sector
––––––––––––––––––––––––––––-
1 | 0:00.00 | 9:36.00 | 0 | 43199
2 | 9:36.00 | 5:49.67 | 43200 | 69441
3 | 15:25.67 | 6:53.01 | 69442 | 100417
4 | 22:18.68 | 7:01.60 | 100418 | 132052
5 | 29:20.53 | 6:10.43 | 132053 | 159845
6 | 35:31.21 | 4:50.39 | 159846 | 181634
7 | 40:21.60 | 4:38.52 | 181635 | 202536
8 | 45:00.37 | 4:31.47 | 202537 | 222908


Track 1

Filename F:\0\!!!!!POST!!!!\Ohio Players ‎- Everybody Up (1979) [2013 FTG]\01 Everybody Up.wav

Pre-gap length 0:00:02.00

Peak level 98.3 %
Extraction speed 2.6 X
Track quality 99.9 %
Test CRC A97D6457
Copy CRC A97D6457
Accurately ripped (confidence 3) [66C980A4] (AR v2)
Copy OK

Track 2

Filename F:\0\!!!!!POST!!!!\Ohio Players ‎- Everybody Up (1979) [2013 FTG]\02 Don't Say Goodbye.wav

Pre-gap length 0:00:01.42

Peak level 99.5 %
Extraction speed 2.8 X
Track quality 99.9 %
Test CRC 7BB84EF9
Copy CRC 7BB84EF9
Accurately ripped (confidence 3) [77AC06EB] (AR v2)
Copy OK

Track 3

Filename F:\0\!!!!!POST!!!!\Ohio Players ‎- Everybody Up (1979) [2013 FTG]\03 Make Me Feel.wav

Pre-gap length 0:00:01.42

Peak level 98.8 %
Extraction speed 3.2 X
Track quality 99.9 %
Test CRC 98F2612F
Copy CRC 98F2612F
Accurately ripped (confidence 3) [9F8F1F32] (AR v2)
Copy OK

Track 4

Filename F:\0\!!!!!POST!!!!\Ohio Players ‎- Everybody Up (1979) [2013 FTG]\04 Say It.wav

Pre-gap length 0:00:01.42

Peak level 98.7 %
Extraction speed 3.8 X
Track quality 100.0 %
Test CRC 2251C196
Copy CRC 2251C196
Accurately ripped (confidence 3) [75B4D636] (AR v2)
Copy OK

Track 5

Filename F:\0\!!!!!POST!!!!\Ohio Players ‎- Everybody Up (1979) [2013 FTG]\05 Take da Funk Off, Fly.wav

Pre-gap length 0:00:01.42

Peak level 99.3 %
Extraction speed 4.0 X
Track quality 100.0 %
Test CRC 9CAE6B4B
Copy CRC 9CAE6B4B
Accurately ripped (confidence 4) [42D1FDB8] (AR v2)
Copy OK

Track 6

Filename F:\0\!!!!!POST!!!!\Ohio Players ‎- Everybody Up (1979) [2013 FTG]\06 Something Special.wav

Pre-gap length 0:00:01.42

Peak level 99.1 %
Extraction speed 3.7 X
Track quality 99.9 %
Test CRC B61F9FCB
Copy CRC B61F9FCB
Accurately ripped (confidence 3) [E2938CEA] (AR v2)
Copy OK

Track 7

Filename F:\0\!!!!!POST!!!!\Ohio Players ‎- Everybody Up (1979) [2013 FTG]\07 Everybody Up [12'' Promotional].wav

Pre-gap length 0:00:01.42

Peak level 99.1 %
Extraction speed 4.3 X
Track quality 100.0 %
Test CRC 826AD197
Copy CRC 826AD197
Accurately ripped (confidence 3) [52680841] (AR v2)
Copy OK

Track 8

Filename F:\0\!!!!!POST!!!!\Ohio Players ‎- Everybody Up (1979) [2013 FTG]\08 Take Da Funk Off, Fly [7''].wav

Pre-gap length 0:00:01.42

Peak level 99.1 %
Extraction speed 4.3 X
Track quality 100.0 %
Test CRC 7396FEB4
Copy CRC 7396FEB4
Accurately ripped (confidence 3) [A27A4EB2] (AR v2)
Copy OK


All tracks accurately ripped

No errors occurred

End of status report

==== Log checksum A098BB803FDA6AB832D28181E406F5392973D0EC63FA4375695B58F23A1F6E82 ====


Tracklist:

1. Everybody Up
2. Don't Say Goodbye
3. Make Me Feel
4. Say It
5. Take Da Funk Off, Fly
6. Something Special
7. Everybody Up {12 Inch Promo}
8. Take Da Funk Off, Fly {7 Inch Version}