Tags
Language
Tags
May 2024
Su Mo Tu We Th Fr Sa
28 29 30 1 2 3 4
5 6 7 8 9 10 11
12 13 14 15 16 17 18
19 20 21 22 23 24 25
26 27 28 29 30 31 1

Olivia Newton-John - Icon (2013)

Posted By: Rtax
Olivia Newton-John - Icon (2013)

Olivia Newton-John - Icon (2013)
EAC Rip | FLAC (tracks, cue, log) - 253 MB | MP3 CBR 320 kbps - 91 MB
38:35 | Pop, Rock, Country | Label: Geffen Records

Olivia Newton-John's U.S. album debut, Let Me Be There, produced her first Top 10 single of the same name, leading to honors from the Academy Of Country Music as Most Promising Female Vocalist and a GRAMMY® Award for Best Country Vocalist. This proved to be only the beginning of a very exciting career. With more than 100 million albums sold, Newton-John's successes include three more GRAMMYs®, numerous Country Music Association, American Music Association and People's Choice Awards.

Newton-John has had ten No. 1 hits, including 'Physical,' which topped the charts for ten consecutive weeks, and more than 15 Top 10 singles. In September 2008, Billboard listed 'Physical' at No. 6 on the magazine's Top 100 Songs Of All Time list and in 2010 listed it as 'The Sexiest Song of All Time.' In 1978, her co-starring role with John Travolta in Grease catapulted Newton-John to super-stardom. With timeless appeal and a career spanning more than four decades, she is still a vibrant, creative artist adored by fans around the world.

Olivia Newton-John ICON features her top smash hits 'Let's Get Physical,' 'I Honestly Love You,' 'Have You Never Been Mellow,' and 'Magic,' plus Top 10s including 'Please Mr. Please,' 'Xanadu,' and 'Heart Attack.'

Tracklist
01. Magic
02. Have You Never Been Mellow
03. Physical
04. Let Me Be There
05. Please Mr. Please
06. A Little More Love
07. Heart Attack
08. Xanadu
09. Make a Move On Me
10. Twist of Fate
11. I Honestly Love You
Exact Audio Copy V1.3 from 2. September 2016

EAC extraction logfile from 28. March 2017, 14:43

Olivia Newton-John / Icon

Used drive : HL-DT-STDVDRAM GP60NB50 Adapter: 1 ID: 1

Read mode : Secure
Utilize accurate stream : Yes
Defeat audio cache : Yes
Make use of C2 pointers : No

Read offset correction : 6
Overread into Lead-In and Lead-Out : No
Fill up missing offset samples with silence : Yes
Delete leading and trailing silent blocks : No
Null samples used in CRC calculations : Yes
Used interface : Native Win32 interface for Win NT & 2000
Gap handling : Appended to previous track

Used output format : User Defined Encoder
Selected bitrate : 1024 kBit/s
Quality : High
Add ID3 tag : No
Command line compressor : C:\Program Files (x86)\Exact Audio Copy\Flac\flac.exe
Additional command line options : -8 -e -V -T "ARTIST=%artist%" -T "TITLE=%title%" -T "ALBUM=%albumtitle%" -T "DATE=%year%" -T "TRACKNUMBER=%tracknr%" -T "GENRE=%genre%" -T "PERFORMER=%albuminterpret%" -T "COMPOSER=%composer%" %haslyrics%–tag-from-file=LYRICS="%lyricsfile%"%haslyrics% -T "ALBUMARTIST=%albumartist%" -T "DISCNUMBER=%cdnumber%" -T "TOTALDISCS=%totalcds%" -T "TOTALTRACKS=%numtracks%" -T "COMMENT=%comment%" %source% -o %dest%


TOC of the extracted CD

Track | Start | Length | Start sector | End sector
––––––––––––––––––––––––––––-
1 | 0:00.00 | 4:28.47 | 0 | 20146
2 | 4:28.47 | 3:30.48 | 20147 | 35944
3 | 7:59.20 | 3:41.42 | 35945 | 52561
4 | 11:40.62 | 2:58.16 | 52562 | 65927
5 | 14:39.03 | 3:22.65 | 65928 | 81142
6 | 18:01.68 | 3:25.57 | 81143 | 96574
7 | 21:27.50 | 3:05.69 | 96575 | 110518
8 | 24:33.44 | 3:29.12 | 110519 | 126205
9 | 28:02.56 | 3:16.02 | 126206 | 140907
10 | 31:18.58 | 3:38.17 | 140908 | 157274
11 | 34:57.00 | 3:37.29 | 157275 | 173578


Track 1

Filename C:\EAC\Olivia Newton-John - Icon (2013) {Geffen B0019220-02} [FLAC]\01 - Magic.wav

Pre-gap length 0:00:02.00

Peak level 88.0 %
Extraction speed 1.3 X
Track quality 100.0 %
Test CRC 04F6276F
Copy CRC 04F6276F
Cannot be verified as accurate (confidence 1) [74E98574], AccurateRip returned [BDFC082D] (AR v2)
Copy OK

Track 2

Filename C:\EAC\Olivia Newton-John - Icon (2013) {Geffen B0019220-02} [FLAC]\02 - Have You Never Been Mellow.wav

Peak level 76.9 %
Extraction speed 1.4 X
Track quality 100.0 %
Test CRC D355F23F
Copy CRC D355F23F
Cannot be verified as accurate (confidence 1) [08033791], AccurateRip returned [F43F1497] (AR v2)
Copy OK

Track 3

Filename C:\EAC\Olivia Newton-John - Icon (2013) {Geffen B0019220-02} [FLAC]\03 - Physical.wav

Peak level 84.6 %
Extraction speed 1.5 X
Track quality 100.0 %
Test CRC D0CA73B7
Copy CRC D0CA73B7
Cannot be verified as accurate (confidence 1) [37879702], AccurateRip returned [20040283] (AR v2)
Copy OK

Track 4

Filename C:\EAC\Olivia Newton-John - Icon (2013) {Geffen B0019220-02} [FLAC]\04 - Let Me Be There.wav

Peak level 100.0 %
Extraction speed 1.5 X
Track quality 100.0 %
Test CRC 2D6CEE4E
Copy CRC 2D6CEE4E
Cannot be verified as accurate (confidence 1) [180A0AB1], AccurateRip returned [A40BE1FF] (AR v2)
Copy OK

Track 5

Filename C:\EAC\Olivia Newton-John - Icon (2013) {Geffen B0019220-02} [FLAC]\05 - Please Mr. Please.wav

Peak level 83.1 %
Extraction speed 1.4 X
Track quality 99.9 %
Test CRC A5340D62
Copy CRC A5340D62
Cannot be verified as accurate (confidence 1) [6CCA48E2], AccurateRip returned [A9E53C68] (AR v2)
Copy OK

Track 6

Filename C:\EAC\Olivia Newton-John - Icon (2013) {Geffen B0019220-02} [FLAC]\06 - A Little More Love.wav

Peak level 99.9 %
Extraction speed 1.7 X
Track quality 100.0 %
Test CRC 5D1603EB
Copy CRC 5D1603EB
Cannot be verified as accurate (confidence 1) [6345E921], AccurateRip returned [3F6F9FA5] (AR v2)
Copy OK

Track 7

Filename C:\EAC\Olivia Newton-John - Icon (2013) {Geffen B0019220-02} [FLAC]\07 - Heart Attack.wav

Peak level 93.8 %
Extraction speed 1.5 X
Track quality 99.9 %
Test CRC 98B64A69
Copy CRC 98B64A69
Cannot be verified as accurate (confidence 1) [61DFFB69], AccurateRip returned [E6AAC2FA] (AR v2)
Copy OK

Track 8

Filename C:\EAC\Olivia Newton-John - Icon (2013) {Geffen B0019220-02} [FLAC]\08 - Xanadu.wav

Peak level 93.3 %
Extraction speed 1.6 X
Track quality 99.9 %
Test CRC D7F5164B
Copy CRC D7F5164B
Cannot be verified as accurate (confidence 1) [C0AB778C], AccurateRip returned [5762FDC4] (AR v2)
Copy OK

Track 9

Filename C:\EAC\Olivia Newton-John - Icon (2013) {Geffen B0019220-02} [FLAC]\09 - Make a Move On Me.wav

Peak level 83.8 %
Extraction speed 1.9 X
Track quality 100.0 %
Test CRC 9C1EC713
Copy CRC 9C1EC713
Cannot be verified as accurate (confidence 1) [E7AC4836], AccurateRip returned [48817CFF] (AR v2)
Copy OK

Track 10

Filename C:\EAC\Olivia Newton-John - Icon (2013) {Geffen B0019220-02} [FLAC]\10 - Twist of Fate.wav

Peak level 88.1 %
Extraction speed 2.0 X
Track quality 100.0 %
Test CRC B95BE5A9
Copy CRC B95BE5A9
Cannot be verified as accurate (confidence 1) [99AAA371], AccurateRip returned [8EBDFA00] (AR v2)
Copy OK

Track 11

Filename C:\EAC\Olivia Newton-John - Icon (2013) {Geffen B0019220-02} [FLAC]\11 - I Honestly Love You.wav

Peak level 95.2 %
Extraction speed 2.1 X
Track quality 100.0 %
Test CRC 99D1FDFA
Copy CRC 99D1FDFA
Cannot be verified as accurate (confidence 1) [ED1EE4DC], AccurateRip returned [53F6A826] (AR v2)
Copy OK


No tracks could be verified as accurate
You may have a different pressing from the one(s) in the database

No errors occurred

End of status report

–– CUETools DB Plugin V2.1.6

[CTDB TOCID: RPZynp5N7ifvYpw5QL6VZVtXQU4-] found
Submit result: RPZynp5N7ifvYpw5QL6VZVtXQU4- has been confirmed
Track | CTDB Status
1 | (4/4) Accurately ripped
2 | (4/4) Accurately ripped
3 | (4/4) Accurately ripped
4 | (4/4) Accurately ripped
5 | (4/4) Accurately ripped
6 | (4/4) Accurately ripped
7 | (4/4) Accurately ripped
8 | (4/4) Accurately ripped
9 | (4/4) Accurately ripped
10 | (4/4) Accurately ripped
11 | (4/4) Accurately ripped


==== Log checksum 585AD1DFBAA1794BF875D8E87CAD22D1A17565F0A0D3D17AB7D5AECEE88EEC80 ====