Tags
Language
Tags

Oscar Shumsky - Eugene Ysaye: Six Sonatas for Solo Violin (1986)

Posted By: Designol
Oscar Shumsky - Eugene Ysaye: Six Sonatas for Solo Violin (1986)

Oscar Shumsky - Eugène Ysaÿe: Six Sonatas for Solo Violin (1986)
EAC | FLAC | Image (Cue&Log) ~ 273 Mb | Mp3 (CBR320) ~ 146 Mb | Scans included
Classical, Chamber Music | Label: Nimbus Records | # NI 5039 | Time: 01:01:46

Eugène Ysaÿe's Opus 27 Sonatas are incredible, unjustly neglected pieces from the canon of major works for solo violin. They demand transcendental virtuosity to bring them off, and a magician of Oscar Shumsky's calibre to breathe life into their bones. Each sonata has a clear identity, reflecting Ysaÿe's success in defining the musical characteristics of the several friends and dedicatees - Szigeti, Thibaud, Kreisler, Enesco, Crickboom and Quiroga. Shumsky uses his own powerful personality to enrich these performances, unmistakeably demonstrating his kinship with these great artists of the past, and produces an absorbtion with his task that is only rarely achieved in the recording studio.

Oscar Shumsky - Eugene Ysaye: Six Sonatas for Solo Violin (1986)



Oscar Shumsky - Eugene Ysaye: Six Sonatas for Solo Violin (1986)



Tracklist:

Sonata No. 1 in G minor
01. I. Grave (04:53)
02. II. Fugato (04:01)
03. III. Allegretto poco scherzoso (03:56)
04. IV. Finale con brio (02:33)

Sonata No. 2 in A minor
05. I. Obsession: Prelude (02:34)
06. II. Malinconia (02:11)
07. III. Danse des Ombres: Sarabande (04:06)
08. IV. Les Furies (02:57)

09. Sonata No. 3 in D minor 'Ballade' (06:56)

Sonata No. 4 in E minor
10. I. Allemanda (05:06)
11. II. Sarabande (02:42)
12. III. Finale (03:19)

Sonata No. 5 in G major
13. I. L'Aurore (04:29)
14. II. Danse Rustique (04:59)
15. Sonata No. 6 in E major (07:00)


Exact Audio Copy V1.0 beta 3 from 29. August 2011

Отчёт EAC об извлечении, выполненном 29. мая 2015, 12:11

Oscar Shumsky / Ysaye - Six Sonatas for Solo Violin

Дисковод: Optiarc DVD RW AD-7260S Adapter: 0 ID: 1

Режим чтения : Достоверность
Использование точного потока : Да
Отключение кэша аудио : Да
Использование указателей C2 : Нет

Коррекция смещения при чтении : 48
Способность читать области Lead-in и Lead-out : Нет
Заполнение пропущенных сэмплов тишиной : Да
Удаление блоков с тишиной в начале и конце : Нет
При вычислениях CRC использовались нулевые сэмплы : Да
Интерфейс : Встроенный Win32-интерфейс для Win NT/2000

Выходной формат : Пользовательский кодировщик
Выбранный битрейт : 896 kBit/s
Качество : Высокий
Добавление ID3-тега : Нет
Утилита сжатия : C:\Program Files\FLAC Frontend\tools\flac.exe
Дополнительные параметры : -V -8 -T "Date=%year%" -T "Genre=%genre%" %source%


TOC извлечённого CD

Трек | Старт | Длительность | Начальный сектор | Конечный сектор
––––––––––––––––––––––––––––––––––-
1 | 0:00.50 | 4:53.25 | 50 | 22049
2 | 4:54.00 | 4:01.00 | 22050 | 40124
3 | 8:55.00 | 3:56.00 | 40125 | 57824
4 | 12:51.00 | 2:33.62 | 57825 | 69361
5 | 15:24.62 | 2:34.50 | 69362 | 80961
6 | 17:59.37 | 2:11.38 | 80962 | 90824
7 | 20:11.00 | 4:06.00 | 90825 | 109274
8 | 24:17.00 | 2:57.37 | 109275 | 122586
9 | 27:14.37 | 6:56.13 | 122587 | 153799
10 | 34:10.50 | 5:06.25 | 153800 | 176774
11 | 39:17.00 | 2:42.00 | 176775 | 188924
12 | 41:59.00 | 3:19.25 | 188925 | 203874
13 | 45:18.25 | 4:29.50 | 203875 | 224099
14 | 49:48.00 | 4:59.00 | 224100 | 246524
15 | 54:47.00 | 7:00.00 | 246525 | 278024


Характеристики диапазона извлечения и сообщения об ошибках

Выбранный диапазон

Имя файла D:\EAC\Мои раздачи\Ysaye - Six Sonatas for Solo Violin - Shumsky\Oscar Shumsky - Ysaye - Six Sonatas for Solo Violin.wav

Пиковый уровень 63.4 %
Скорость извлечения 4.3 X
Качество диапазона 100.0 %
CRC теста B5EFBAFE
CRC копии B5EFBAFE
Копирование… OK

Ошибок не произошло


AccurateRip: сводка

Трек 1 : извлечено точно (доверие 2) [03F6731A] (AR v2)
Трек 2 : извлечено точно (доверие 2) [DE406C86] (AR v2)
Трек 3 : извлечено точно (доверие 2) [644E573D] (AR v2)
Трек 4 : извлечено точно (доверие 2) [8257B4E9] (AR v2)
Трек 5 : извлечено точно (доверие 2) [1DFC0DF1] (AR v2)
Трек 6 : извлечено точно (доверие 2) [A40F3B6F] (AR v2)
Трек 7 : извлечено точно (доверие 2) [EAD682A0] (AR v2)
Трек 8 : извлечено точно (доверие 2) [F917B528] (AR v2)
Трек 9 : извлечено точно (доверие 2) [58B2BE68] (AR v2)
Трек 10 : извлечено точно (доверие 2) [B32374CB] (AR v2)
Трек 11 : извлечено точно (доверие 2) [5E306B20] (AR v2)
Трек 12 : извлечено точно (доверие 2) [45A7EF36] (AR v2)
Трек 13 : извлечено точно (доверие 2) [7AFA18D9] (AR v2)
Трек 14 : извлечено точно (доверие 2) [B091D863] (AR v2)
Трек 15 : извлечено точно (доверие 2) [F7CEAEEE] (AR v2)

Все треки извлечены точно

Конец отчёта

==== Контрольная сумма отчёта 0738EC6D0AC4EB5A2E97239A5C8E95AB7112DE7A362881FC7C2B4695065BE9A8 ====

foobar2000 1.2 / Dynamic Range Meter 1.1.1
log date: 2015-06-14 17:19:42

––––––––––––––––––––––––––––––––––––––––
Analyzed: Oscar Shumsky / Ysaye - Six Sonatas for Solo Violin
––––––––––––––––––––––––––––––––––––––––

DR Peak RMS Duration Track
––––––––––––––––––––––––––––––––––––––––
DR12 -11.26 dB -27.76 dB 4:53 01-Sonata No. 1 in G minor - I. Grave
DR13 -6.74 dB -25.50 dB 4:01 02-II. Fugato
DR12 -11.42 dB -28.26 dB 3:56 03-III. Allegretto poco scherzoso
DR13 -6.98 dB -24.03 dB 2:34 04-IV. Finale con brio
DR12 -8.95 dB -26.86 dB 2:35 05-Sonata No. 2 in A minor - I. Obsession: Prelude
DR12 -16.04 dB -33.11 dB 2:12 06-II. Malinconia
DR14 -8.72 dB -29.39 dB 4:06 07-III. Danse des Ombres: Sarabande
DR14 -3.95 dB -23.54 dB 2:57 08-IV. Les Furies
DR14 -7.46 dB -25.43 dB 6:56 09-Sonata No. 3 in D minor 'Ballade'
DR12 -9.68 dB -26.73 dB 5:06 10-Sonata No. 4 in E minor - I. Allemanda
DR12 -11.18 dB -30.90 dB 2:42 11-II. Sarabande
DR12 -7.18 dB -27.08 dB 3:19 12-III. Finale
DR13 -9.93 dB -28.74 dB 4:30 13-Sonata No. 5 in G major - I. L'Aurore
DR14 -7.55 dB -25.73 dB 4:59 14-II. Danse Rustique
DR14 -7.65 dB -26.06 dB 7:00 15-Sonata No. 6 in E major
––––––––––––––––––––––––––––––––––––––––

Number of tracks: 15
Official DR value: DR13

Samplerate: 44100 Hz
Channels: 2
Bits per sample: 16
Bitrate: 608 kbps
Codec: FLAC
================================================================================

Oscar Shumsky - Eugene Ysaye: Six Sonatas for Solo Violin (1986)

All thanks to original releaser - Святогор Иванович

More interesting music in My Blog