Subcategories
Tags
Language
Tags

Otis Rush - Any Place I'm Going (1998)

Posted By: Designol
Otis Rush - Any Place I'm Going (1998)

Otis Rush - Any Place I'm Going (1998)
XLD | FLAC | Image (Cue&Log) ~ 356 Mb | Mp3 (CBR320) ~ 131 Mb | Scans ~ 158 Mb
Label: House Of Blues | # 51416 1343 2 | Time: 00:56:49
Chicago Blues, Electric Blues, Soul-Blues

This album on the House of Blues label is a bit smoother and more slickly produced (by Rush and famed Memphis producer Willie Mitchell) than Rush's classic, rough-edged Chess recordings, but there's still plenty here to like. With a solid horn section backing him on most cuts, Rush gets ample room to show off his razor-sharp guitar chops. And his distinctive, emotionally charged voice remains a true blues treasure. In addition to his own no-nonsense originals, Rush draws on some familiar tunes from classic soul and blues performers like Marvin Gaye, Sam Cooke, Nappy Brown, and Little Milton.

Review by Joel Roberts, Allmusic.com

Otis Rush - Any Place I'm Going (1998)



Tracklist:

01. You Fired Yourself (4:30)
02. Keep On Loving Me Baby (6:15)
03. Part Time Love (5:51)
04. I Got The Blues (4:54)
05. The Right Time (5:59)
06. Looking Back (6:22)
07. Any Place I'm Going (4:39)
08. Laughin' And Clownin' (4:01)
09. Pride And Joy (3:57)
10. Have You Ever Had The Blues (3:18)
11. Walking The Back Streets And Crying (7:03)


X Lossless Decoder version 20181001 (151.0)

XLD extraction logfile from 2018-10-06 20:50:17 +0500

Otis Rush / Any Place I'm Going

Used drive : HL-DT-ST DVDRAM GP60NS60 (revision PE00)
Media type : Pressed CD

Ripper mode : XLD Secure Ripper
Disable audio cache : OK for the drive with a cache less than 1375KiB
Make use of C2 pointers : NO
Read offset correction : 6
Max retry count : 20
Gap status : Analyzed, Appended

TOC of the extracted CD
Track | Start | Length | Start sector | End sector
––––––––––––––––––––––––––––-
1 | 00:00:00 | 04:29:45 | 0 | 20219
2 | 04:29:45 | 06:15:12 | 20220 | 48356
3 | 10:44:57 | 05:50:63 | 48357 | 74669
4 | 16:35:45 | 04:54:00 | 74670 | 96719
5 | 21:29:45 | 05:59:02 | 96720 | 123646
6 | 27:28:47 | 06:22:35 | 123647 | 152331
7 | 33:51:07 | 04:39:13 | 152332 | 173269
8 | 38:30:20 | 04:01:37 | 173270 | 191381
9 | 42:31:57 | 03:56:63 | 191382 | 209144
10 | 46:28:45 | 03:18:00 | 209145 | 223994
11 | 49:46:45 | 07:02:45 | 223995 | 255689

List of alternate offset correction values
# | Absolute | Relative | Confidence
–––––––––––––––––––––
1 | -940 | -946 | 3

AccurateRip Summary (DiscID: 0017f294-00ce1eaf-9a0d510b)
Track 01 : OK (v1+v2, confidence 32/35)
Track 02 : OK (v1+v2, confidence 32/35)
Track 03 : OK (v1+v2, confidence 31/34)
Track 04 : OK (v1+v2, confidence 31/34)
Track 05 : OK (v1+v2, confidence 32/35)
Track 06 : OK (v1+v2, confidence 32/35)
Track 07 : OK (v1+v2, confidence 32/35)
Track 08 : OK (v1+v2, confidence 32/35)
Track 09 : OK (v1+v2, confidence 32/35)
Track 10 : OK (v1+v2, confidence 31/34)
Track 11 : OK (v1+v2, confidence 31/34)
->All tracks accurately ripped.

All Tracks
Filename : /Users/mihail/Music/CDs/Otis Rush - Any Place I'm Going.flac
Album gain : -8.00 dB
Peak : 0.999969
CRC32 hash (test run) : A0CBC5E3
CRC32 hash : A0CBC5E3
CRC32 hash (skip zero) : 668C21AB
Statistics
Read error : 0
Jitter error (maybe fixed) : 0
Retry sector count : 0
Damaged sector count : 0

Track 01
Pre-gap length : 00:02:00

Track gain : -6.42 dB
Peak : 0.999969
CRC32 hash (test run) : BDF97581
CRC32 hash : BDF97581
CRC32 hash (skip zero) : 58B61DDF
AccurateRip v1 signature : 8329A36A
AccurateRip v2 signature : 2B52B109
->Accurately ripped (v1+v2, confidence 17+15/35)
Statistics
Read error : 0
Jitter error (maybe fixed) : 0
Retry sector count : 0
Damaged sector count : 0

Track 02
Pre-gap length : 00:01:10

Track gain : -8.96 dB
Peak : 0.999969
CRC32 hash (test run) : 3B47F148
CRC32 hash : 3B47F148
CRC32 hash (skip zero) : 118EC863
AccurateRip v1 signature : 43F78A92
AccurateRip v2 signature : EA2CF9AC
->Accurately ripped (v1+v2, confidence 17+15/35)
Statistics
Read error : 0
Jitter error (maybe fixed) : 0
Retry sector count : 0
Damaged sector count : 0

Track 03
Pre-gap length : 00:02:27

Track gain : -8.79 dB
Peak : 0.999969
CRC32 hash (test run) : 98524BF9
CRC32 hash : 98524BF9
CRC32 hash (skip zero) : 338923CF
AccurateRip v1 signature : 6D45A1FC
AccurateRip v2 signature : 4D6AD574
->Accurately ripped (v1+v2, confidence 16+15/34)
Statistics
Read error : 0
Jitter error (maybe fixed) : 0
Retry sector count : 0
Damaged sector count : 0

Track 04
Pre-gap length : 00:02:03

Track gain : -8.47 dB
Peak : 0.999969
CRC32 hash (test run) : E17C8C74
CRC32 hash : E17C8C74
CRC32 hash (skip zero) : DC0DD598
AccurateRip v1 signature : E6424AE5
AccurateRip v2 signature : 174DA1C8
->Accurately ripped (v1+v2, confidence 16+15/34)
Statistics
Read error : 0
Jitter error (maybe fixed) : 0
Retry sector count : 0
Damaged sector count : 0

Track 05
Pre-gap length : 00:00:73

Track gain : -7.78 dB
Peak : 0.999969
CRC32 hash (test run) : 37B5E65B
CRC32 hash : 37B5E65B
CRC32 hash (skip zero) : B2FBC090
AccurateRip v1 signature : CF4D7AA3
AccurateRip v2 signature : D587ABE9
->Accurately ripped (v1+v2, confidence 17+15/35)
Statistics
Read error : 0
Jitter error (maybe fixed) : 0
Retry sector count : 0
Damaged sector count : 0

Track 06
Pre-gap length : 00:02:42

Track gain : -8.74 dB
Peak : 0.999969
CRC32 hash (test run) : 31607DFF
CRC32 hash : 31607DFF
CRC32 hash (skip zero) : 39ADAFE9
AccurateRip v1 signature : 284DF97A
AccurateRip v2 signature : EF4F8A18
->Accurately ripped (v1+v2, confidence 17+15/35)
Statistics
Read error : 0
Jitter error (maybe fixed) : 0
Retry sector count : 0
Damaged sector count : 0

Track 07
Pre-gap length : 00:02:47

Track gain : -6.47 dB
Peak : 0.999969
CRC32 hash (test run) : A8579E05
CRC32 hash : A8579E05
CRC32 hash (skip zero) : 94925F88
AccurateRip v1 signature : 28160480
AccurateRip v2 signature : D7A49DE6
->Accurately ripped (v1+v2, confidence 17+15/35)
Statistics
Read error : 0
Jitter error (maybe fixed) : 0
Retry sector count : 0
Damaged sector count : 0

Track 08
Pre-gap length : 00:02:70

Track gain : -5.79 dB
Peak : 0.999969
CRC32 hash (test run) : 4A6167F1
CRC32 hash : 4A6167F1
CRC32 hash (skip zero) : 96A7FC04
AccurateRip v1 signature : 01CAD3E9
AccurateRip v2 signature : A003A6B5
->Accurately ripped (v1+v2, confidence 17+15/35)
Statistics
Read error : 0
Jitter error (maybe fixed) : 0
Retry sector count : 0
Damaged sector count : 0

Track 09
Pre-gap length : 00:02:37

Track gain : -8.70 dB
Peak : 0.999969
CRC32 hash (test run) : 624DCD1F
CRC32 hash : 624DCD1F
CRC32 hash (skip zero) : A45986B5
AccurateRip v1 signature : AF3DBECD
AccurateRip v2 signature : 4708296E
->Accurately ripped (v1+v2, confidence 17+15/35)
Statistics
Read error : 0
Jitter error (maybe fixed) : 0
Retry sector count : 0
Damaged sector count : 0

Track 10
Pre-gap length : 00:03:15

Track gain : -9.22 dB
Peak : 0.999969
CRC32 hash (test run) : E75B1364
CRC32 hash : E75B1364
CRC32 hash (skip zero) : 261F6D3C
AccurateRip v1 signature : F8DBD700
AccurateRip v2 signature : 2A2AD657
->Accurately ripped (v1+v2, confidence 17+14/34)
Statistics
Read error : 0
Jitter error (maybe fixed) : 0
Retry sector count : 0
Damaged sector count : 0

Track 11
Pre-gap length : 00:02:55

Track gain : -6.76 dB
Peak : 0.999969
CRC32 hash (test run) : C550254D
CRC32 hash : C550254D
CRC32 hash (skip zero) : 790DF197
AccurateRip v1 signature : 591C7A6C
AccurateRip v2 signature : 139A5975
->Accurately ripped (v1+v2, confidence 16+15/34)
Statistics
Read error : 0
Jitter error (maybe fixed) : 0
Retry sector count : 0
Damaged sector count : 0

No errors occurred

End of status report

foobar2000 1.2 / Dynamic Range Meter 1.1.1
log date: 2018-10-09 21:32:57

––––––––––––––––––––––––––––––––––––––––
Analyzed: Otis Rush / Any Place I'm Going
––––––––––––––––––––––––––––––––––––––––

DR Peak RMS Duration Track
––––––––––––––––––––––––––––––––––––––––
DR10 0.00 dB -11.28 dB 4:30 01-You Fired Yourself
DR8 0.00 dB -8.73 dB 6:15 02-Keep On Loving Me Baby
DR7 0.00 dB -8.86 dB 5:51 03-Part Time Love
DR8 0.00 dB -9.28 dB 4:54 04-I Got The Blues
DR9 0.00 dB -9.77 dB 5:59 05-The Right Time
DR8 0.00 dB -9.14 dB 6:22 06-Looking Back
DR9 0.00 dB -10.95 dB 4:39 07-Any Place I'm Going
DR9 0.00 dB -11.46 dB 4:01 08-Laughin' And Clownin'
DR8 0.00 dB -9.02 dB 3:57 09-Pride And Joy
DR7 0.00 dB -8.29 dB 3:18 10-Have You Ever Had The Blues
DR9 0.00 dB -10.95 dB 7:03 11-Walking The Back Streets And Crying
––––––––––––––––––––––––––––––––––––––––

Number of tracks: 11
Official DR value: DR8

Samplerate: 44100 Hz
Channels: 2
Bits per sample: 16
Bitrate: 873 kbps
Codec: FLAC
================================================================================

Otis Rush - Any Place I'm Going (1998)

Otis Rush - Any Place I'm Going (1998)

All thanks to original releaser - squirr

More interesting music in My Blog