Tags
Language
Tags

Overkill: Singles Collection (1990 - 2000)

Posted By: v3122
Overkill: Singles Collection (1990 - 2000)

Overkill: Singles Collection (1990 - 2000)
EAC | Flac(Image) + Cue + Log & MP3 CBR 320Kbps
6CD | Label: Various | ~ 526 or 174 Mb | Scans(jpg) -> 78 Mb
Thrash / Heavy Metal

An integral part of the early 1980s thrash metal movement, New Jersey quartet Overkill were formed in 1980 by vocalist Bobby "Blitz" Ellsworth and guitarist Bobby Gustafson, and also included bassist D.D. Verni and drummer Rat Skates (later replaced by Sid Falck). The band garnered a reputation for brutal, pounding speed and technique, but lacked the musical diversity to compete with heavy hitters like Metallica; still, Overkill built up a strong following in the metal underground with albums like 1985's Taking Over and 1988's Under the Influence. Gustafson quit in 1989 following the Years of Decay album, and was replaced by Rob Cannavino and Merritt Gant. The band recorded its most effective and varied album, Horrorscope, in 1991; drummer Tim Mallare took over on 1993's I Hear Black. Overkill's final major-label release was 1994's W.F.O, after which the band moved to CMC International. With a new guitar team of Joe Comeau and Sebastian Marino, Overkill recorded albums like 1996's The Killing Kind, 1997's From the Underground and Below, and 1999's Necroshine. Also issued in 1999, Coverkill celebrated the band's influences with renditions of songs by Black Sabbath, Jethro Tull, the Sex Pistols, and others.
Overkill soldiered on into the year 2000 with Bloodletting and recorded the following tour for a live album, 2002's Live from Asbury Park. While on tour for their last two efforts, Ellsworth collapsed on-stage in Germany after suffering a mild stroke. It would prove to be a minor setback, however, as the band continued not only to put out albums, but to refine its sound, starting with 2003's Killbox 13 and continuing with 2005's ReliXIV and 2007's Immortalis. In 2010, Overkill really experienced a new resurgence with the release of Ironbound, which even found the band making an appearance on the Billboard charts. They followed up with another album of classic thrash in 2012 with The Electric Age. Ellsworth suffered another health-related setback the following year, having to cancel some tour dates after contracting mild pneumonia. He soon bounced back, however, and, riding their new wave of success, they plunged back into the studio to record another fan-pleasing album of breakneck thrash. Titled White Devil Armory, it was released in July of 2014 through Nuclear Blast. The following year saw the arrival of the mid-career retrospective Historikill: 1995–2007, and in late 2016 Overkill issued a single, "Our Finest Hour," in anticipation of the release of their 18th studio long-player, Grinding Wheel, which dropped in February 2017. 2018's Live in Overhausen captured an April 2016 concert in Oberhausen, Germany during which the band celebrated the 30th anniversary of their debut, Feel the Fire, and the 25th anniversary of career standout Horrorscope.

by Steve Huey, allmusic
Overkill: Singles Collection (1990 - 2000)

Overkill: Singles Collection (1990 - 2000):

Overkill: Singles Collection (1990 - 2000)

Tracklist CD1 - 1990 - Fuck You [Caroline, Megaforse, CAROL 1345-2, USA]:

01. Fuck You (Studio) (2:21)
02. Rotten To The Core (6:41)
03. Hammerhead (3:57)
04. Use Your Head (5:19)
05. Electro-Violence (3:50)
06. Fuck You (Live) (2:27)

Exact Audio Copy V1.0 beta 3 from 29. August 2011

EAC extraction logfile from 28. January 2012, 19:05

Overkill / Fuck You [Caroline,Megaforse, CAROL 1345-2, USA]

Used drive : PIONEER DVD-RW DVR-112D Adapter: 1 ID: 0

Read mode : Secure
Utilize accurate stream : Yes
Defeat audio cache : Yes
Make use of C2 pointers : No

Read offset correction : 48
Overread into Lead-In and Lead-Out : No
Fill up missing offset samples with silence : Yes
Delete leading and trailing silent blocks : No
Null samples used in CRC calculations : Yes
Used interface : Installed external ASPI interface

Used output format : User Defined Encoder
Selected bitrate : 1024 kBit/s
Quality : High
Add ID3 tag : No
Command line compressor : C:\Program Files\Exact Audio Copy\FLAC\FLAC.EXE
Additional command line options : -V -8 -T "Date=%year%" -T "Genre=%genre%" %source%


TOC of the extracted CD

Track | Start | Length | Start sector | End sector
––––––––––––––––––––––––––––-
1 | 0:00.50 | 2:20.52 | 50 | 10601
2 | 2:21.27 | 6:41.13 | 10602 | 40689
3 | 9:02.40 | 3:57.30 | 40690 | 58494
4 | 12:59.70 | 5:18.55 | 58495 | 82399
5 | 18:18.50 | 3:50.12 | 82400 | 99661
6 | 22:08.62 | 2:27.08 | 99662 | 110694


Range status and errors

Selected range

Filename C:\CDRip by Deminbek\Overkill - Fuck You [Caroline,Megaforse, CAROL 1345-2, USA].wav

Peak level 97.7 %
Extraction speed 6.3 X
Range quality 100.0 %
Test CRC 7C3C618B
Copy CRC 7C3C618B
Copy OK

No errors occurred


AccurateRip summary

Track 1 accurately ripped (confidence 7) [44DB01D1] (AR v1)
Track 2 accurately ripped (confidence 7) [E18B6E07] (AR v1)
Track 3 accurately ripped (confidence 7) [DAC5FEE4] (AR v1)
Track 4 accurately ripped (confidence 7) [1185B705] (AR v1)
Track 5 accurately ripped (confidence 7) [CBBE35D0] (AR v1)
Track 6 accurately ripped (confidence 6) [319FCBE1] (AR v1)

All tracks accurately ripped

End of status report

==== Log checksum C6369E6B9DA425DB1DA2945D52FB1D357F237F2F572A992C9B280F89CE4A5309 ====


[CUETools log; Date: 22.08.2018 15:43:16; Version: 2.1.5]
Pregap length 00:00:50.
[CTDB TOCID: AkckQsZ0NrG8kBiGWhL.RI3W.DQ-] found.
Track | CTDB Status
1 | (9/9) Accurately ripped
2 | (9/9) Accurately ripped
3 | (9/9) Accurately ripped
4 | (9/9) Accurately ripped
5 | (9/9) Accurately ripped
6 | (9/9) Accurately ripped
[AccurateRip ID: 000624a2-0020fddd-3005c306] found.
Track [ CRC | V2 ] Status
01 [44db01d1|802aec5d] (07+10/17) Accurately ripped
02 [e18b6e07|7c4e7a6e] (07+10/17) Accurately ripped
03 [dac5fee4|31365054] (07+10/17) Accurately ripped
04 [1185b705|621fed0f] (07+10/17) Accurately ripped
05 [cbbe35d0|4d0de9b6] (07+10/17) Accurately ripped
06 [319fcbe1|8bdd8a17] (06+10/16) Accurately ripped

Track Peak [ CRC32 ] [W/O NULL] [ LOG ]
– 97,7 [7C3C618B] [3806ED99] CRC32
01 97,7 [711CF761] [77BF6681]
02 97,7 [4F1254A8] [E8187E00]
03 92,7 [3F4451D8] [82C07E12]
04 97,6 [56C38176] [4B61926A]
05 97,1 [A6F984B4] [5CFA87DB]
06 88,7 [133B6505] [25D34D82]


Overkill: Singles Collection (1990 - 2000)

Tracklist CD2 - 1990 - Live 'Kill [Megaforce, Atlantic, Promo, PRCD 3356-2, USA]:

01. HoleIn The Sky (3:43)
02. E.vil N.ever D.ies (6:11)

Exact Audio Copy V1.0 beta 3 from 29. August 2011

EAC extraction logfile from 28. January 2012, 16:04

Overkill / Live 'Kill [Megaforce/Atlantic, Promo, PRCD 3356-2, USA ]

Used drive : PIONEER DVD-RW DVR-112D Adapter: 1 ID: 0

Read mode : Secure
Utilize accurate stream : Yes
Defeat audio cache : Yes
Make use of C2 pointers : No

Read offset correction : 48
Overread into Lead-In and Lead-Out : No
Fill up missing offset samples with silence : Yes
Delete leading and trailing silent blocks : No
Null samples used in CRC calculations : Yes
Used interface : Installed external ASPI interface

Used output format : User Defined Encoder
Selected bitrate : 1024 kBit/s
Quality : High
Add ID3 tag : No
Command line compressor : C:\Program Files\Exact Audio Copy\FLAC\FLAC.EXE
Additional command line options : -V -8 -T "Date=%year%" -T "Genre=%genre%" %source%


TOC of the extracted CD

Track | Start | Length | Start sector | End sector
––––––––––––––––––––––––––––-
1 | 0:00.33 | 3:43.00 | 33 | 16757
2 | 3:43.33 | 6:10.67 | 16758 | 44574


Range status and errors

Selected range

Filename C:\CDRip by Deminbek\Overkill - Live 'Kill [Megaforce,Atlantic, Promo, PRCD 3356-2, USA ].wav

Peak level 100.0 %
Extraction speed 5.2 X
Range quality 100.0 %
Test CRC A9944FD0
Copy CRC A9944FD0
Copy OK

No errors occurred


AccurateRip summary

Track 1 not present in database
Track 2 not present in database

None of the tracks are present in the AccurateRip database

End of status report

==== Log checksum 5731BC472CAE9C3F5FCD59875771CB5453FEAB08C9557E326C09755DF22878D3 ====


[CUETools log; Date: 22.08.2018 15:43:34; Version: 2.1.5]
Pregap length 00:00:33.
[CTDB TOCID: FtVbyW1d_2LDdyko9pSKmGQNkNE-] disk not present in database.
[AccurateRip ID: 0000efb6-00028d6a-0b025202] found.
Track [ CRC | V2 ] Status
01 [448ad7c3|1b6f54ad] (0+1/1) Accurately ripped
02 [97fa30f2|fe3dc1b1] (0+1/1) Accurately ripped

Track Peak [ CRC32 ] [W/O NULL] [ LOG ]
– 100,0 [A9944FD0] [1AF0153A] CRC32
01 100,0 [E892458B] [1187C3E9]
02 95,7 [88F6E56E] [07A721E6]


Overkill: Singles Collection (1990 - 2000)

Tracklist CD3 - 1991 - Infectious [Megaforce, Atlantic, PRCD 4125-2, USA]:

01. Infectious (4:05)

Exact Audio Copy V1.0 beta 3 from 29. August 2011

EAC extraction logfile from 10. May 2014, 10:05

Overkill / Infectious [Megaforce, PRCD 4125-2, USA]

Used drive : PIONEER DVD-RW DVR-112D Adapter: 1 ID: 0

Read mode : Secure
Utilize accurate stream : Yes
Defeat audio cache : Yes
Make use of C2 pointers : No

Read offset correction : 48
Overread into Lead-In and Lead-Out : No
Fill up missing offset samples with silence : Yes
Delete leading and trailing silent blocks : No
Null samples used in CRC calculations : Yes
Used interface : Installed external ASPI interface

Used output format : User Defined Encoder
Selected bitrate : 1024 kBit/s
Quality : High
Add ID3 tag : No
Command line compressor : C:\Program Files\Exact Audio Copy\FLAC\FLAC.EXE
Additional command line options : -V -8 -T "Date=%year%" -T "Genre=%genre%" %source%


TOC of the extracted CD

Track | Start | Length | Start sector | End sector
––––––––––––––––––––––––––––-
1 | 0:00.32 | 4:04.40 | 32 | 18371


Range status and errors

Selected range

Filename C:\CDRip by Deminbek\Overkill - Infectious [Megaforce, PRCD 4125-2, USA].wav

Peak level 96.4 %
Extraction speed 4.4 X
Range quality 100.0 %
Test CRC 9CDD219C
Copy CRC 9CDD219C
Copy OK

No errors occurred


AccurateRip summary

Track 1 not present in database

None of the tracks are present in the AccurateRip database

End of status report

–– CUETools DB Plugin V2.1.4

[CTDB TOCID: ON__g7ChyIjtQuCNtn6aGeG4Dnw-] disk not present in database
Submit result: ON__g7ChyIjtQuCNtn6aGeG4Dnw- has been uploaded


==== Log checksum A03C2A453C35E9E77151A0A85DFB2B4F4E04AD96A0BCBE5CD5BC3BC16866A790 ====


[CUETools log; Date: 22.08.2018 15:43:52; Version: 2.1.5]
Pregap length 00:00:32.
[CTDB TOCID: ON__g7ChyIjtQuCNtn6aGeG4Dnw-] found.
Track | CTDB Status
1 | (1/4) Accurately ripped
[AccurateRip ID: 000047e4-00008fa8-0200f401] found.
Track [ CRC | V2 ] Status
01 [a269bfc6|fdb50296] (0+0/1) No match

Track Peak [ CRC32 ] [W/O NULL] [ LOG ]
– 96,4 [9CDD219C] [7A6719BC] CRC32
01 96,4 [A969E310] [7A6719BC] [9CDD219C]


Overkill: Singles Collection (1990 - 2000)

Tracklist CD4 - 1995 - Wrecking Your Neck Live Promo [CMC Rec., CD PRO, Canada]:

01. The Wait (5:13)
02. Elimination (4:41)
03. Rotten To The Core (5:22)

Exact Audio Copy V1.0 beta 3 from 29. August 2011

EAC extraction logfile from 28. January 2012, 19:14

Overkill / Wrecking Your Neck Live [CMC Rec., CD PRO, Canada]

Used drive : PIONEER DVD-RW DVR-112D Adapter: 1 ID: 0

Read mode : Secure
Utilize accurate stream : Yes
Defeat audio cache : Yes
Make use of C2 pointers : No

Read offset correction : 48
Overread into Lead-In and Lead-Out : No
Fill up missing offset samples with silence : Yes
Delete leading and trailing silent blocks : No
Null samples used in CRC calculations : Yes
Used interface : Installed external ASPI interface

Used output format : User Defined Encoder
Selected bitrate : 1024 kBit/s
Quality : High
Add ID3 tag : No
Command line compressor : C:\Program Files\Exact Audio Copy\FLAC\FLAC.EXE
Additional command line options : -V -8 -T "Date=%year%" -T "Genre=%genre%" %source%


TOC of the extracted CD

Track | Start | Length | Start sector | End sector
––––––––––––––––––––––––––––-
1 | 0:00.00 | 5:12.57 | 0 | 23456
2 | 5:12.57 | 4:41.05 | 23457 | 44536
3 | 9:53.62 | 5:21.58 | 44537 | 68669


Range status and errors

Selected range

Filename C:\CDRip by Deminbek\Overkill - Wrecking Your Neck Live [CMC Rec., CD PRO, Canada].wav

Peak level 100.0 %
Extraction speed 6.1 X
Range quality 100.0 %
Test CRC CE3E7F52
Copy CRC CE3E7F52
Copy OK

No errors occurred


AccurateRip summary

Track 1 not present in database
Track 2 not present in database
Track 3 not present in database

None of the tracks are present in the AccurateRip database

End of status report

==== Log checksum 4A9DB8DF9BBCD56150406C865868CF98C8F7CECFD803FC536F4100BA0DBA5FA4 ====


[CUETools log; Date: 22.08.2018 15:44:14; Version: 2.1.5]
[CTDB TOCID: EfsKfIWVaHpSreOVKX0u.lqz.WU-] found.
Track | CTDB Status
1 | (1/1) Accurately ripped
2 | (1/1) Accurately ripped
3 | (1/1) Accurately ripped
[AccurateRip ID: 000215d8-0006f226-1d039303] found.
Track [ CRC | V2 ] Status
01 [d55e1162|25421127] (0+1/1) Accurately ripped
02 [1c5700a7|5ad5deb3] (0+1/1) Accurately ripped
03 [06f9bd41|b274a646] (0+1/1) Accurately ripped

Track Peak [ CRC32 ] [W/O NULL] [ LOG ]
– 99,9 [CE3E7F52] [578B5C88] CRC32
01 99,9 [1277B717] [86899855]
02 99,9 [DFAE8298] [75262633]
03 99,9 [C4DF5D8D] [E85AF41A]


Overkill: Singles Collection (1990 - 2000)

Tracklist CD5 - 1997 - The Rip n' Tear [CMC Rec., Promo, CMC DJ 87231-2, USA]:

01. The Rip n' Tear (4:18)

Exact Audio Copy V1.0 beta 3 from 29. August 2011

EAC extraction logfile from 28. January 2012, 20:17

Overkill / The Rip n' Tear [CMC Rec., Promo, CMC DJ 87231-2, USA]

Used drive : PIONEER DVD-RW DVR-112D Adapter: 1 ID: 0

Read mode : Secure
Utilize accurate stream : Yes
Defeat audio cache : Yes
Make use of C2 pointers : No

Read offset correction : 48
Overread into Lead-In and Lead-Out : No
Fill up missing offset samples with silence : Yes
Delete leading and trailing silent blocks : No
Null samples used in CRC calculations : Yes
Used interface : Installed external ASPI interface

Used output format : User Defined Encoder
Selected bitrate : 1024 kBit/s
Quality : High
Add ID3 tag : No
Command line compressor : C:\Program Files\Exact Audio Copy\FLAC\FLAC.EXE
Additional command line options : -V -8 -T "Date=%year%" -T "Genre=%genre%" %source%


TOC of the extracted CD

Track | Start | Length | Start sector | End sector
––––––––––––––––––––––––––––-
1 | 0:00.00 | 4:18.27 | 0 | 19376


Range status and errors

Selected range

Filename C:\CDRip by Deminbek\Overkill - The Rip n' Tear [CMC Rec., Promo, CMC DJ 87231-2, USA].wav

Peak level 99.9 %
Extraction speed 4.5 X
Range quality 100.0 %
Test CRC 8FA2667E
Copy CRC 8FA2667E
Copy OK

No errors occurred


AccurateRip summary

Track 1 not present in database

None of the tracks are present in the AccurateRip database

End of status report

==== Log checksum C7387A9FA343A83EDD9FAC7DD759810EC0088A05F948AF1E4C8B262AC2D67EF2 ====


[CUETools log; Date: 22.08.2018 15:44:33; Version: 2.1.5]
[CTDB TOCID: n0jq_BAtBUUAGpTpXILWVLPqHxs-] disk not present in database.
[AccurateRip ID: 00004bb1-00009763-02010201] found.
Track [ CRC | V2 ] Status
01 [f24cb7b0|5bb09ce5] (0+1/1) Accurately ripped

Track Peak [ CRC32 ] [W/O NULL] [ LOG ]
– 99,9 [8FA2667E] [B7E254B9] CRC32
01 99,9 [8FA2667E] [B7E254B9] CRC32


Overkill: Singles Collection (1990 - 2000)

Tracklist CD6 - 2000 - 3 Song Sampler [Metal-Is,BMG, Promo MISDJ 87503-2, USA]:

01. Bleed Me (4:33)
02. What Im Missin' (4:40)
03. Death Comes Out To Play (5:03)

Exact Audio Copy V1.0 beta 3 from 29. August 2011

EAC extraction logfile from 28. January 2012, 20:27

Overkill / 3 Song Sampler [Metal-Is,BMG, Promo MISDJ 87503-2, USA]

Used drive : PIONEER DVD-RW DVR-112D Adapter: 1 ID: 0

Read mode : Secure
Utilize accurate stream : Yes
Defeat audio cache : Yes
Make use of C2 pointers : No

Read offset correction : 48
Overread into Lead-In and Lead-Out : No
Fill up missing offset samples with silence : Yes
Delete leading and trailing silent blocks : No
Null samples used in CRC calculations : Yes
Used interface : Installed external ASPI interface

Used output format : User Defined Encoder
Selected bitrate : 1024 kBit/s
Quality : High
Add ID3 tag : No
Command line compressor : C:\Program Files\Exact Audio Copy\FLAC\FLAC.EXE
Additional command line options : -V -8 -T "Date=%year%" -T "Genre=%genre%" %source%


TOC of the extracted CD

Track | Start | Length | Start sector | End sector
––––––––––––––––––––––––––––-
1 | 0:00.00 | 4:32.47 | 0 | 20446
2 | 4:32.47 | 4:39.63 | 20447 | 41434
3 | 9:12.35 | 5:03.20 | 41435 | 64179


Range status and errors

Selected range

Filename C:\CDRip by Deminbek\Overkill - 3 Song Sampler [Metal-Is,BMG, Promo MISDJ 87503-2, USA].wav

Peak level 99.8 %
Extraction speed 5.5 X
Range quality 100.0 %
Test CRC 25B68753
Copy CRC 25B68753
Copy OK

No errors occurred


AccurateRip summary

Track 1 not present in database
Track 2 not present in database
Track 3 not present in database

None of the tracks are present in the AccurateRip database

End of status report

==== Log checksum 798583EE636AD16D86DD89864B319311162F6329777249D45DC6B5975F36D333 ====


[CUETools log; Date: 22.08.2018 15:44:51; Version: 2.1.5]
[CTDB TOCID: eScur1tG2Qi25gQXlVn9L8ndvRk-] disk not present in database.
[AccurateRip ID: 0001ec6e-00067020-1d035703] found.
Track [ CRC | V2 ] Status
01 [64f7747d|f39b16d4] (0+1/1) Accurately ripped
02 [79931948|1b9b1423] (0+1/1) Accurately ripped
03 [5e038657|16408b8f] (0+1/1) Accurately ripped

Track Peak [ CRC32 ] [W/O NULL] [ LOG ]
– 99,8 [25B68753] [3E5755A4] CRC32
01 99,8 [02F2BCCB] [7FBB9C10]
02 99,8 [FAFDDA9E] [9CBEB4EB]
03 99,8 [2E1AD8CA] [EC1C7671]


All thanks go to the original releasers

Download Overkill: Singles Collection (1990 - 2000):