Subcategories

Pedro Alfonso - Strings To Your Heart (2006) {Talent Beach}

Posted By: TestTickles
Pedro Alfonso - Strings To Your Heart (2006) {Talent Beach}

Pedro Alfonso - Strings To Your Heart (2006) {Talent Beach}
EAC Rip | FLAC with CUE and log | scans | 404 mb
MP3 CBR 320kbps | RAR | 177 mb
Genre: jazz, Latin jazz

Strings To Your Heart is the 2006 album by jazz violinist Pedro Alfonso. The disc also features help from Al Di Meola, Paquito D'Rivera and many more. This was released by Talent Beach.

Pedro Alfonso - Strings To Your Heart (2006) {Talent Beach}

01. Cuerdas Locas
02. The Next One
03. Deep Breath
04. Oil For Fools
05. Little Havana
06. Balada Para Liduvina
07. The Big Mountain
08. La Comparsa
09. Open Arms
10. My Funny Valentine
11. Here We Are
12. The Sunday After

Pedro Alfonso-violin, background vocals, piano, keyboards, percussion, programming
Paquito D'Rivera-saxophone
Al Di Meola-acoustic & electric guitar
Lee Levin-drums
Dan Warner-guitars
José Gregorio Hernández-percussion
Richard Bravo-percussion, drums
Beppe Gemelli-drums
Danny Rodriguez-charango
Tony Rijos-guitars
Yasmil Marrufo-cuatro
Ali Saad (DJ Refugee)-Arabic chants

Produced by Pedro Alfonso
Engineered by Pedro Alfonso, Rodolfo Castillo, Joey Raia, Rodolfo Böhmwald, Manuel Sanchez, Marty Cintron, Dan Warner, Lee Levin, Jose Gregorio Hernandez, Richard Bravo, Deppe Gemelli, Tony Rijos, Yasmil Marrufo & DJ Refugee
Mixed by Boris Milán
Mastered by Michael Fuller

Pedro Alfonso - Strings To Your Heart (2006) {Talent Beach}


Exact Audio Copy V1.0 beta 6 from 9. April 2015

EAC extraction logfile from 8. February 2018, 11:42

Pedro Alfonso / Strings To Your Heart

Used drive : TSSTcorpDVD+-RW TS-L633C Adapter: 1 ID: 0

Read mode : Secure
Utilize accurate stream : Yes
Defeat audio cache : Yes
Make use of C2 pointers : No

Read offset correction : 6
Overread into Lead-In and Lead-Out : No
Fill up missing offset samples with silence : Yes
Delete leading and trailing silent blocks : No
Null samples used in CRC calculations : Yes
Used interface : Native Win32 interface for Win NT & 2000
Gap handling : Appended to previous track

Used output format : Internal WAV Routines
Sample format : 44.100 Hz; 16 Bit; Stereo


TOC of the extracted CD

Track | Start | Length | Start sector | End sector
––––––––––––––––––––––––––––-
1 | 0:00.00 | 3:45.03 | 0 | 16877
2 | 3:45.03 | 3:54.18 | 16878 | 34445
3 | 7:39.21 | 3:54.21 | 34446 | 52016
4 | 11:33.42 | 4:09.06 | 52017 | 70697
5 | 15:42.48 | 4:14.37 | 70698 | 89784
6 | 19:57.10 | 4:43.70 | 89785 | 111079
7 | 24:41.05 | 3:48.28 | 111080 | 128207
8 | 28:29.33 | 3:24.17 | 128208 | 143524
9 | 31:53.50 | 3:21.14 | 143525 | 158613
10 | 35:14.64 | 4:10.67 | 158614 | 177430
11 | 39:25.56 | 4:42.25 | 177431 | 198605
12 | 44:08.06 | 3:52.71 | 198606 | 216076


Track 1

Filename C:\My Documents\My FLAC\Pedro Alfonso - Strings To Your Heart (2006) [FLAC] {Talent Beach}\01 - Cuerdas Locas.wav

Pre-gap length 0:00:02.00

Peak level 99.9 %
Extraction speed 2.5 X
Track quality 100.0 %
Test CRC BDFB0F21
Copy CRC BDFB0F21
Accurately ripped (confidence 1) [F212A188] (AR v2)
Copy OK

Track 2

Filename C:\My Documents\My FLAC\Pedro Alfonso - Strings To Your Heart (2006) [FLAC] {Talent Beach}\02 - The Next One.wav

Pre-gap length 0:00:01.13

Peak level 99.9 %
Extraction speed 2.7 X
Track quality 100.0 %
Test CRC 2427B9E7
Copy CRC 2427B9E7
Accurately ripped (confidence 1) [E522B3FD] (AR v2)
Copy OK

Track 3

Filename C:\My Documents\My FLAC\Pedro Alfonso - Strings To Your Heart (2006) [FLAC] {Talent Beach}\03 - Deep Breath.wav

Pre-gap length 0:00:01.10

Peak level 99.9 %
Extraction speed 3.0 X
Track quality 100.0 %
Test CRC 0B48E318
Copy CRC 0B48E318
Accurately ripped (confidence 1) [35D02032] (AR v2)
Copy OK

Track 4

Filename C:\My Documents\My FLAC\Pedro Alfonso - Strings To Your Heart (2006) [FLAC] {Talent Beach}\04 - Oil For Fools.wav

Pre-gap length 0:00:00.46

Peak level 99.9 %
Extraction speed 3.3 X
Track quality 100.0 %
Test CRC BA1F8D7F
Copy CRC BA1F8D7F
Accurately ripped (confidence 1) [E9BA8A8E] (AR v2)
Copy OK

Track 5

Filename C:\My Documents\My FLAC\Pedro Alfonso - Strings To Your Heart (2006) [FLAC] {Talent Beach}\05 - Little Havana.wav

Pre-gap length 0:00:01.20

Peak level 99.9 %
Extraction speed 3.5 X
Track quality 100.0 %
Test CRC 4D536868
Copy CRC 4D536868
Accurately ripped (confidence 1) [014588CC] (AR v2)
Copy OK

Track 6

Filename C:\My Documents\My FLAC\Pedro Alfonso - Strings To Your Heart (2006) [FLAC] {Talent Beach}\06 - Balada Para Liduvina.wav

Pre-gap length 0:00:00.47

Peak level 99.9 %
Extraction speed 3.8 X
Track quality 100.0 %
Test CRC 080B1D22
Copy CRC 080B1D22
Accurately ripped (confidence 1) [233EC33D] (AR v2)
Copy OK

Track 7

Filename C:\My Documents\My FLAC\Pedro Alfonso - Strings To Your Heart (2006) [FLAC] {Talent Beach}\07 - The Big Mountain.wav

Peak level 99.9 %
Extraction speed 3.1 X
Track quality 99.9 %
Test CRC 1A4CC4FF
Copy CRC 1A4CC4FF
Accurately ripped (confidence 1) [3286E8F4] (AR v2)
Copy OK

Track 8

Filename C:\My Documents\My FLAC\Pedro Alfonso - Strings To Your Heart (2006) [FLAC] {Talent Beach}\08 - La Comparsa.wav

Pre-gap length 0:00:00.45

Peak level 99.9 %
Extraction speed 3.8 X
Track quality 100.0 %
Test CRC 37660E6E
Copy CRC 37660E6E
Accurately ripped (confidence 1) [0C1507C3] (AR v2)
Copy OK

Track 9

Filename C:\My Documents\My FLAC\Pedro Alfonso - Strings To Your Heart (2006) [FLAC] {Talent Beach}\09 - Open Arms.wav

Pre-gap length 0:00:01.43

Peak level 99.9 %
Extraction speed 3.1 X
Track quality 99.9 %
Test CRC 164A1B13
Copy CRC 164A1B13
Accurately ripped (confidence 1) [CD99CD0A] (AR v2)
Copy OK

Track 10

Filename C:\My Documents\My FLAC\Pedro Alfonso - Strings To Your Heart (2006) [FLAC] {Talent Beach}\10 - My Funny Valentine.wav

Pre-gap length 0:00:00.48

Peak level 99.9 %
Extraction speed 4.2 X
Track quality 100.0 %
Test CRC 4ADC89B3
Copy CRC 4ADC89B3
Accurately ripped (confidence 1) [78601384] (AR v2)
Copy OK

Track 11

Filename C:\My Documents\My FLAC\Pedro Alfonso - Strings To Your Heart (2006) [FLAC] {Talent Beach}\11 - Here We Are.wav

Pre-gap length 0:00:01.38

Peak level 99.9 %
Extraction speed 4.4 X
Track quality 100.0 %
Test CRC F3DF0BEE
Copy CRC F3DF0BEE
Accurately ripped (confidence 1) [4D411763] (AR v2)
Copy OK

Track 12

Filename C:\My Documents\My FLAC\Pedro Alfonso - Strings To Your Heart (2006) [FLAC] {Talent Beach}\12 - The Sunday After.wav

Pre-gap length 0:00:01.71

Peak level 99.9 %
Extraction speed 4.4 X
Track quality 100.0 %
Test CRC CE07681D
Copy CRC CE07681D
Accurately ripped (confidence 1) [76DEB1AE] (AR v2)
Copy OK


All tracks accurately ripped

No errors occurred

End of status report

–– CUETools DB Plugin V2.1.6

[CTDB TOCID: EtcWLqtpeVLLEhlAmKrUJJpUHTs-] disk not present in database
Submit result: EtcWLqtpeVLLEhlAmKrUJJpUHTs- has been uploaded


==== Log checksum 32494E27CDCEF5699A06F3A3E7905A623248F0E3CC54C58CDD6E486A309A8CFF ====


Pedro Alfonso - Strings To Your Heart (2006) {Talent Beach}