Subcategories
Tags
Language
Tags

Peter Kent & Luisa Fernandez - It's A Real Good Feeling (2002) {LaserLight Digital}

Posted By: TestTickles
Peter Kent & Luisa Fernandez - It's A Real Good Feeling (2002) {LaserLight Digital}

Peter Kent & Luisa Fernandez - It's A Real Good Feeling (2002) {LaserLight Digital}
EAC Rip | FLAC with log | scans | 499 mb
MP3 CBR 320kbps | RAR | 138 mb
Genre: electronic pop, synth-pop, disco

It's A Real Good Feeling is a 2002 compilation disc by Peter Kent & Luisa Fernandez. This was released by LaserLight Digital.

Peter Kent & Luisa Fernandez - It's A Real Good Feeling (2002) {LaserLight Digital}

01. It's A Real Good Feeling (3:53)
02. Yuo're All I Need (3:45)
03. For Your Love (3:39)
04. Take A Ride On The Peace Train (3:51)
05. This Is My Symphony (4:13)
06. Stop And Go (3:44)
07. Solo por ti (Key Of Magic) (4:01)
08. Quizas, quizas, quizas (Perhaps, Perhaps, Perhaps (3:37)
09. Perdona (3:39)
10. Lay Love On You (3:56)
11. Manana (3:46)
12. Illusion (3:15)
13. Dream Tonight (3:32)
14. Fiesta del sol (3:51)
15. Con Esperanza (3:37)
16. Who Do You Love? (4:15)

Exact Audio Copy V0.99 prebeta 4 from 23. January 2008

EAC extraction logfile from 11. November 2008, 09:21

Peter Kent & Luisa Fernandez / It's A Real Good Feeling

Used drive : TSSTcorpCDDVDW SH-S203B Adapter: 6 ID: 0

Read mode : Secure
Utilize accurate stream : Yes
Defeat audio cache : Yes
Make use of C2 pointers : No

Read offset correction : 6
Overread into Lead-In and Lead-Out : No
Fill up missing offset samples with silence : Yes
Delete leading and trailing silent blocks : No
Null samples used in CRC calculations : Yes
Used interface : Installed external ASPI interface

Used output format : Monkey's Audio Lossless Encoder
Selected bitrate : Fast Lossless Compression
Quality : High
Add ID3 tag : No
Command line compressor : C:\Program Files\Monkey's Audio\MAC.exe

TOC of the extracted CD

Track | Start | Length | Start sector | End sector
––––––––––––––––––––––––––––-
1 | 0:00.00 | 3:53.37 | 0 | 17511
2 | 3:53.37 | 3:45.01 | 17512 | 34387
3 | 7:38.38 | 3:39.08 | 34388 | 50820
4 | 11:17.46 | 3:51.65 | 50821 | 68210
5 | 15:09.36 | 4:13.04 | 68211 | 87189
6 | 19:22.40 | 3:44.15 | 87190 | 104004
7 | 23:06.55 | 4:01.25 | 104005 | 122104
8 | 27:08.05 | 3:37.51 | 122105 | 138430
9 | 30:45.56 | 3:39.61 | 138431 | 154916
10 | 34:25.42 | 3:56.14 | 154917 | 172630
11 | 38:21.56 | 3:46.60 | 172631 | 189640
12 | 42:08.41 | 3:15.15 | 189641 | 204280
13 | 45:23.56 | 3:32.55 | 204281 | 220235
14 | 48:56.36 | 3:51.23 | 220236 | 237583
15 | 52:47.59 | 3:37.74 | 237584 | 253932
16 | 56:25.58 | 4:15.17 | 253933 | 273074

Range status and errors

Selected range

Filename C:\cuntfist\FLAC\Peter Kent & Luisa Fernandez - It's A Real Good Feeling (2002) [FLAC] {LaserLight Digital}\Peter Kent & Luisa Fernandez - It's A Real Good Feeling.wav

Peak level 98.4 %
Range quality 100.0 %
Copy CRC 701512AC
Copy OK

No errors occurred

AccurateRip summary

Track 1 not present in database
Track 2 not present in database
Track 3 not present in database
Track 4 not present in database
Track 5 not present in database
Track 6 not present in database
Track 7 not present in database
Track 8 not present in database
Track 9 not present in database
Track 10 not present in database
Track 11 not present in database
Track 12 not present in database
Track 13 not present in database
Track 14 not present in database
Track 15 not present in database
Track 16 not present in database

None of the tracks are present in the AccurateRip database

End of status report


Peter Kent & Luisa Fernandez - It's A Real Good Feeling (2002) {LaserLight Digital}


Thank you to the original uploader.