Subcategories

Parliament - Funkentelechy vs. The Placebo Syndrome (1977) {1990 Casablanca} **[RE-UP]**

Posted By: TestTickles
Parliament - Funkentelechy vs. The Placebo Syndrome (1977) {1990 Casablanca} **[RE-UP]**

Parliament - Funkentelechy vs. The Placebo Syndrome (1977) {1990 Casablanca}
EAC Rip | FLAC with CUE and log | scans | 288mb
MP3 CBR 320kbps | RAR | 132mb
Genre: funk, soul, R&B

Funkentelechy vs. The Placebo Syndrome is the 1977 album by Parliament. It is an album where Starchild meets up with Sir Nose D'Voidoffunk, who have to battle those with big noses in order to get out of the brightness. The album became a hit in part due to the single "Flashlight". This is from the 1990 CD pressing that is "unmastered".

Parliament - Funkentelechy vs. The Placebo Syndrome (1977) {1990 Casablanca} **[RE-UP]**

1. Bop Gun (Endangered Species)
2. Sir Nose D'Voidoffunk (Pay Attention-B3M)
3. Wizard Of Finance
4. Funkentelechy
5. Placebo Syndrome
6. Flash Light

EAC extraction logfile from 11. October 2005, 4:54 for CD
Parliament / Funkentelechy vs. The Placebo Syndrome

Used drive : LITE-ON DVDRW SOHW-1633S Adapter: 0 ID: 0
Read mode : Secure with NO C2, accurate stream, disable cache
Read offset correction : 12
Overread into Lead-In and Lead-Out : No

Used output format : Internal WAV Routines
44.100 Hz; 16 Bit; Stereo

Other options :
Fill up missing offset samples with silence : Yes
Delete leading and trailing silent blocks : No
Installed external ASPI interface


Track 1
Filename C:\FLAC\Parliament - Funkentelechy vs. The Placebo Syndrome (1977) [FLAC] {1990 Casablanca}\01 - Bop Gun (Endangered Species).wav

Pre-gap length 0:00:02.32

Peak level 87.4 %
Track quality 100.0 %
Test CRC F4BB5A66
Copy CRC F4BB5A66
Copy OK

Track 2
Filename C:\FLAC\Parliament - Funkentelechy vs. The Placebo Syndrome (1977) [FLAC] {1990 Casablanca}\02 - Sir Nose D'Voidoffunk (Pay Attention-B3M).wav

Pre-gap length 0:00:04.62

Peak level 79.4 %
Track quality 100.0 %
Test CRC BDB95A93
Copy CRC BDB95A93
Copy OK

Track 3
Filename C:\FLAC\Parliament - Funkentelechy vs. The Placebo Syndrome (1977) [FLAC] {1990 Casablanca}\03 - Wizard of Finance.wav

Pre-gap length 0:00:05.60

Peak level 66.1 %
Track quality 100.0 %
Test CRC 69C19731
Copy CRC 69C19731
Copy OK

Track 4
Filename C:\FLAC\Parliament - Funkentelechy vs. The Placebo Syndrome (1977) [FLAC] {1990 Casablanca}\04 - Funkentelechy.wav

Pre-gap length 0:00:01.63

Peak level 95.9 %
Track quality 100.0 %
Test CRC 4FAFDC95
Copy CRC 4FAFDC95
Copy OK

Track 5
Filename C:\FLAC\Parliament - Funkentelechy vs. The Placebo Syndrome (1977) [FLAC] {1990 Casablanca}\05 - Placebo Syndrome.wav

Pre-gap length 0:00:02.62

Peak level 71.5 %
Track quality 100.0 %
Test CRC 511DD2A4
Copy CRC 511DD2A4
Copy OK

Track 6
Filename C:\FLAC\Parliament - Funkentelechy vs. The Placebo Syndrome (1977) [FLAC] {1990 Casablanca}\06 - Flash Light.wav

Pre-gap length 0:00:02.63

Peak level 78.8 %
Track quality 99.9 %
Test CRC CB5287C7
Copy CRC CB5287C7
Copy OK

No errors occured


End of status report


Parliament - Funkentelechy vs. The Placebo Syndrome (1977) {1990 Casablanca} **[RE-UP]**