Tags
Language
Tags

Paul Anka - The Best Of... (1988) {1990 Gramofonové Závody}

Posted By: TestTickles
Paul Anka - The Best Of... (1988) {1990 Gramofonové Závody}

Paul Anka - The Best Of… (1988) {1990 Gramofonové Závody}
EAC Rip | FLAC with CUE and log | scans | 379 mb
MP3 CBR 320kbps | RAR | 150 mb
Genre: pop

The Best Of Paul Anka is a 1988 compilation by American singer Paul Anka. This is a pressing allegedy made for/in Czechoslovakia, released by Gramofonové Závody.

Paul Anka - The Best Of... (1988) {1990 Gramofonové Závody}

01. Jubilation
02. Let Me Be The One
03. Pretty Good
04. You And Me Today
05. We Made It Happen
06. That's What Living's About
07. House Upon A Hill
08. Life Song
09. Something Good Is Coming
10. Love Is
11. Some Kind Of Friend
12. Yesterday My Life Was More Of Just The Same
13. She's A Lady
14. Les Filles De Paris
15. Do I Love You
16. My Way

Exact Audio Copy V1.0 beta 3 from 29. August 2011

Отчёт EAC об извлечении, выполненном 5. мая 2013, 4:07

Paul Anka / The Best of Paul Anka

Дисковод: PLEXTOR CD-R PREMIUM2 Adapter: 3 ID: 0

Режим чтения : Достоверность
Использование точного потока : Да
Отключение кэша аудио : Да
Использование указателей C2 : Нет

Коррекция смещения при чтении : 30
Способность читать области Lead-in и Lead-out : Да
Заполнение пропущенных сэмплов тишиной : Да
Удаление блоков с тишиной в начале и конце : Нет
При вычислениях CRC использовались нулевые сэмплы : Да
Интерфейс : Встроенный Win32-интерфейс для Win NT/2000

Выходной формат : Внутренние WAV-операции
Формат сэмплов : 44.100 Гц; 16 бит; стерео


TOC извлечённого CD

Трек | Старт | Длительность | Начальный сектор | Конечный сектор
––––––––––––––––––––––––––––––––––-
1 | 0:00.32 | 6:59.03 | 32 | 31459
2 | 6:59.35 | 4:13.30 | 31460 | 50464
3 | 11:12.65 | 3:43.15 | 50465 | 67204
4 | 14:56.05 | 4:38.07 | 67205 | 88061
5 | 19:34.12 | 3:58.45 | 88062 | 105956
6 | 23:32.57 | 2:58.03 | 105957 | 119309
7 | 26:30.60 | 4:10.05 | 119310 | 138064
8 | 30:40.65 | 3:05.05 | 138065 | 151944
9 | 33:45.70 | 2:58.65 | 151945 | 165359
10 | 36:44.60 | 2:48.17 | 165360 | 177976
11 | 39:33.02 | 4:30.68 | 177977 | 198294
12 | 44:03.70 | 3:11.60 | 198295 | 212679
13 | 47:15.55 | 2:49.45 | 212680 | 225399
14 | 50:05.25 | 4:13.20 | 225400 | 244394
15 | 54:18.45 | 3:12.25 | 244395 | 258819
16 | 57:30.70 | 4:34.02 | 258820 | 279371


Характеристики диапазона извлечения и сообщения об ошибках

Выбранный диапазон

Имя файла C:\FLAC\Paul Anka - The Best Of… (1988) [FLAC] {1990 Gramofonové Závody}\Paul Anka - The Best of Paul Anka.wav

Пиковый уровень 100.0 %
Скорость извлечения 6.4 X
Качество диапазона 100.0 %
CRC теста 1C37651C
CRC копии 1C37651C
Копирование… OK

Ошибок не произошло


AccurateRip: сводка

Трек 1 отсутствует в базе данных
Трек 2 отсутствует в базе данных
Трек 3 отсутствует в базе данных
Трек 4 отсутствует в базе данных
Трек 5 отсутствует в базе данных
Трек 6 отсутствует в базе данных
Трек 7 отсутствует в базе данных
Трек 8 отсутствует в базе данных
Трек 9 отсутствует в базе данных
Трек 10 отсутствует в базе данных
Трек 11 отсутствует в базе данных
Трек 12 отсутствует в базе данных
Трек 13 отсутствует в базе данных
Трек 14 отсутствует в базе данных
Трек 15 отсутствует в базе данных
Трек 16 отсутствует в базе данных

Ни одного трека нет в базе AccurateRip

Конец отчёта

–– CUETools DB Plugin V2.1.4

[CTDB TOCID: YXt_iNo2IOf89qjDFYyf5_sO6YE-] disk not present in database
Submit result: YXt_iNo2IOf89qjDFYyf5_sO6YE- has been uploaded


==== Контрольная сумма отчёта 7A4001982B4F57C5026FDAE6D951F52B7C028A909137AA82258364B1F24A7B0E ====


Paul Anka - The Best Of... (1988) {1990 Gramofonové Závody}


Thank you to the original uploader