Tags
Language
Tags

Paul Tanner/David Megill/Maurice Gerow - Jazz: Tenth Edition (2CD) (2005) {Sony Music Custom Marketing Group}

Posted By: TestTickles
Paul Tanner/David Megill/Maurice Gerow - Jazz: Tenth Edition (2CD) (2005) {Sony Music Custom Marketing Group}

Paul Tanner/David Megill/Maurice Gerow - Jazz: Tenth Edition (2CD) (2005) {Sony Music Custom Marketing Group}
EAC Rip | FLAC with CUE and log | scans | 750 mb
MP3 CBR 320 kbps | RAR | 352 mb
Genre: jazz

Jazz: Tenth Edition is a 2CD set that was originally a companion piece to a book written by Paul Tanner, David Megill and Maurice Gerow. Disc 1 features musical collaborations between the three authors while Disc 2 is a compilation of classic jazz ranging from John Coltrane, Miles Davis and Ornette Coleman to Chick Corea, Michael Brecker, and Wynton Marsalis. This CD was put together by Sony Music Custom Marketing Group.

Paul Tanner/David Megill/Maurice Gerow - Jazz: Tenth Edition (2CD) (2005) {Sony Music Custom Marketing Group}

DISC 1
01. Julie Ann (Juliana) Johnson
02. Dry Bones
03. Hellhound On My Train
04. Empty Bed Blues
05. Fine And Mellow
06. Maple Leaf Rag
07. Maple Leaf Rag
08. Carolina Shout
09. Elegie
10. Honky Tonk Train Blues
11. Dippermouth Blues
12. Maple Leaf Rag
13. West End Blues
14. Singin' The Blues
15. Wrappin' It Up
16. Taxi War Dance
17. The Man I Love
18. Lester Leaps In
19. I Got Rhythm
20. In A Mellotone
21. Passion Flower
22. Ko-Ko
23. Koko
24. Bag's Groove

DISC 2
01. The Modern Jazz Quartet - Django
02. Miles Davis with The Gil Evans Orchestra - Summertime
03. Miles Davis - So What
04. Horace Silver Quintet - The Preacher
05. Sonny Rollins - Blue 7
06. Bill Evans Trio - Autumn Leaves
07. Ornette Coleman - Faces And Places
08. John Coltrane Quartet - A Love Supreme Part 1- Acknowledgment
09. Miles Davis & Ensemble - Bitches Brew (Excerpt)
10. Chick Corea Quartet - Stretch It (Part 1)
11. Weather Report - Birdland
12. Michael Brecker - Itsbynne Reel (Excerpt)
13. Wynton Marsalis - Hackensack

Exact Audio Copy V1.0 beta 6 from 9. April 2015

EAC extraction logfile from 14. September 2018, 11:06

Paul Tanner/David Megill/Maurice Gerow / Jazz, Tenth Edition (Disc 1)

Used drive : TSSTcorpDVD+-RW TS-L633C Adapter: 1 ID: 0

Read mode : Secure
Utilize accurate stream : Yes
Defeat audio cache : Yes
Make use of C2 pointers : No

Read offset correction : 6
Overread into Lead-In and Lead-Out : No
Fill up missing offset samples with silence : Yes
Delete leading and trailing silent blocks : No
Null samples used in CRC calculations : Yes
Used interface : Native Win32 interface for Win NT & 2000
Gap handling : Appended to previous track

Used output format : Internal WAV Routines
Sample format : 44.100 Hz; 16 Bit; Stereo


TOC of the extracted CD

Track | Start | Length | Start sector | End sector
––––––––––––––––––––––––––––-
1 | 0:00.00 | 2:55.47 | 0 | 13171
2 | 2:55.47 | 3:43.65 | 13172 | 29961
3 | 6:39.37 | 2:38.08 | 29962 | 41819
4 | 9:17.45 | 3:05.12 | 41820 | 55706
5 | 12:22.57 | 3:14.30 | 55707 | 70286
6 | 15:37.12 | 3:22.70 | 70287 | 85506
7 | 19:00.07 | 2:41.13 | 85507 | 97594
8 | 21:41.20 | 2:49.12 | 97595 | 110281
9 | 24:30.32 | 2:27.00 | 110282 | 121306
10 | 26:57.32 | 3:01.73 | 121307 | 134954
11 | 29:59.30 | 2:36.70 | 134955 | 146724
12 | 32:36.25 | 2:58.05 | 146725 | 160079
13 | 35:34.30 | 3:20.00 | 160080 | 175079
14 | 38:54.30 | 3:03.00 | 175080 | 188804
15 | 41:57.30 | 2:46.04 | 188805 | 201258
16 | 44:43.34 | 2:51.00 | 201259 | 214083
17 | 47:34.34 | 2:35.61 | 214084 | 225769
18 | 50:10.20 | 3:17.02 | 225770 | 240546
19 | 53:27.22 | 5:07.70 | 240547 | 263641
20 | 58:35.17 | 3:20.53 | 263642 | 278694
21 | 61:55.70 | 3:09.02 | 278695 | 292871
22 | 65:04.72 | 2:41.48 | 292872 | 304994
23 | 67:46.45 | 2:56.40 | 304995 | 318234
24 | 70:43.10 | 2:50.35 | 318235 | 331019


Track 1

Filename C:\My Documents\My FLAC\Paul Tanner, David Megill, Maurice Gerow - Jazz, Tenth Edition (2CD) (2005) [FLAC] {Sony Music Custom Marketing Group}\Disc 1\01 - Julie Ann (Juliana) Johnson.wav

Pre-gap length 0:00:02.00

Peak level 99.9 %
Extraction speed 2.1 X
Track quality 99.9 %
Test CRC 23718D27
Copy CRC 23718D27
Track not present in AccurateRip database
Copy OK

Track 2

Filename C:\My Documents\My FLAC\Paul Tanner, David Megill, Maurice Gerow - Jazz, Tenth Edition (2CD) (2005) [FLAC] {Sony Music Custom Marketing Group}\Disc 1\02 - Dry Bones.wav

Pre-gap length 0:00:03.10

Peak level 69.3 %
Extraction speed 2.8 X
Track quality 100.0 %
Test CRC F0E3F366
Copy CRC F0E3F366
Track not present in AccurateRip database
Copy OK

Track 3

Filename C:\My Documents\My FLAC\Paul Tanner, David Megill, Maurice Gerow - Jazz, Tenth Edition (2CD) (2005) [FLAC] {Sony Music Custom Marketing Group}\Disc 1\03 - Hellhound On My Train.wav

Pre-gap length 0:00:02.43

Peak level 63.2 %
Extraction speed 3.0 X
Track quality 100.0 %
Test CRC 7B3AE572
Copy CRC 7B3AE572
Track not present in AccurateRip database
Copy OK

Track 4

Filename C:\My Documents\My FLAC\Paul Tanner, David Megill, Maurice Gerow - Jazz, Tenth Edition (2CD) (2005) [FLAC] {Sony Music Custom Marketing Group}\Disc 1\04 - Empty Bed Blues.wav

Pre-gap length 0:00:02.60

Peak level 87.3 %
Extraction speed 3.2 X
Track quality 100.0 %
Test CRC D90848B7
Copy CRC D90848B7
Track not present in AccurateRip database
Copy OK

Track 5

Filename C:\My Documents\My FLAC\Paul Tanner, David Megill, Maurice Gerow - Jazz, Tenth Edition (2CD) (2005) [FLAC] {Sony Music Custom Marketing Group}\Disc 1\05 - Fine And Mellow.wav

Pre-gap length 0:00:02.40

Peak level 87.4 %
Extraction speed 3.3 X
Track quality 100.0 %
Test CRC FE0B80AA
Copy CRC FE0B80AA
Track not present in AccurateRip database
Copy OK

Track 6

Filename C:\My Documents\My FLAC\Paul Tanner, David Megill, Maurice Gerow - Jazz, Tenth Edition (2CD) (2005) [FLAC] {Sony Music Custom Marketing Group}\Disc 1\06 - Maple Leaf Rag.wav

Pre-gap length 0:00:03.70

Peak level 82.4 %
Extraction speed 3.5 X
Track quality 100.0 %
Test CRC 8C650693
Copy CRC 8C650693
Track not present in AccurateRip database
Copy OK

Track 7

Filename C:\My Documents\My FLAC\Paul Tanner, David Megill, Maurice Gerow - Jazz, Tenth Edition (2CD) (2005) [FLAC] {Sony Music Custom Marketing Group}\Disc 1\07 - Maple Leaf Rag.wav

Pre-gap length 0:00:02.62

Peak level 76.0 %
Extraction speed 3.5 X
Track quality 100.0 %
Test CRC DE9FBEAE
Copy CRC DE9FBEAE
Track not present in AccurateRip database
Copy OK

Track 8

Filename C:\My Documents\My FLAC\Paul Tanner, David Megill, Maurice Gerow - Jazz, Tenth Edition (2CD) (2005) [FLAC] {Sony Music Custom Marketing Group}\Disc 1\08 - Carolina Shout.wav

Pre-gap length 0:00:03.15

Peak level 65.4 %
Extraction speed 3.7 X
Track quality 100.0 %
Test CRC 0BE0588D
Copy CRC 0BE0588D
Track not present in AccurateRip database
Copy OK

Track 9

Filename C:\My Documents\My FLAC\Paul Tanner, David Megill, Maurice Gerow - Jazz, Tenth Edition (2CD) (2005) [FLAC] {Sony Music Custom Marketing Group}\Disc 1\09 - Elegie.wav

Pre-gap length 0:00:03.55

Peak level 88.0 %
Extraction speed 3.6 X
Track quality 100.0 %
Test CRC 269759BF
Copy CRC 269759BF
Track not present in AccurateRip database
Copy OK

Track 10

Filename C:\My Documents\My FLAC\Paul Tanner, David Megill, Maurice Gerow - Jazz, Tenth Edition (2CD) (2005) [FLAC] {Sony Music Custom Marketing Group}\Disc 1\10 - Honky Tonk Train Blues.wav

Pre-gap length 0:00:02.37

Peak level 92.7 %
Extraction speed 3.9 X
Track quality 100.0 %
Test CRC 443902B9
Copy CRC 443902B9
Track not present in AccurateRip database
Copy OK

Track 11

Filename C:\My Documents\My FLAC\Paul Tanner, David Megill, Maurice Gerow - Jazz, Tenth Edition (2CD) (2005) [FLAC] {Sony Music Custom Marketing Group}\Disc 1\11 - Dippermouth Blues.wav

Pre-gap length 0:00:02.38

Peak level 94.5 %
Extraction speed 3.9 X
Track quality 100.0 %
Test CRC A51B990D
Copy CRC A51B990D
Track not present in AccurateRip database
Copy OK

Track 12

Filename C:\My Documents\My FLAC\Paul Tanner, David Megill, Maurice Gerow - Jazz, Tenth Edition (2CD) (2005) [FLAC] {Sony Music Custom Marketing Group}\Disc 1\12 - Maple Leaf Rag.wav

Pre-gap length 0:00:02.35

Peak level 97.8 %
Extraction speed 4.1 X
Track quality 100.0 %
Test CRC 925C1924
Copy CRC 925C1924
Track not present in AccurateRip database
Copy OK

Track 13

Filename C:\My Documents\My FLAC\Paul Tanner, David Megill, Maurice Gerow - Jazz, Tenth Edition (2CD) (2005) [FLAC] {Sony Music Custom Marketing Group}\Disc 1\13 - West End Blues.wav

Pre-gap length 0:00:02.43

Peak level 81.4 %
Extraction speed 4.3 X
Track quality 100.0 %
Test CRC 4D9891D1
Copy CRC 4D9891D1
Track not present in AccurateRip database
Copy OK

Track 14

Filename C:\My Documents\My FLAC\Paul Tanner, David Megill, Maurice Gerow - Jazz, Tenth Edition (2CD) (2005) [FLAC] {Sony Music Custom Marketing Group}\Disc 1\14 - Singin' The Blues.wav

Pre-gap length 0:00:02.40

Peak level 94.5 %
Extraction speed 4.4 X
Track quality 100.0 %
Test CRC 07912FE3
Copy CRC 07912FE3
Track not present in AccurateRip database
Copy OK

Track 15

Filename C:\My Documents\My FLAC\Paul Tanner, David Megill, Maurice Gerow - Jazz, Tenth Edition (2CD) (2005) [FLAC] {Sony Music Custom Marketing Group}\Disc 1\15 - Wrappin' It Up.wav

Pre-gap length 0:00:02.48

Peak level 88.9 %
Extraction speed 4.4 X
Track quality 100.0 %
Test CRC DF910296
Copy CRC DF910296
Track not present in AccurateRip database
Copy OK

Track 16

Filename C:\My Documents\My FLAC\Paul Tanner, David Megill, Maurice Gerow - Jazz, Tenth Edition (2CD) (2005) [FLAC] {Sony Music Custom Marketing Group}\Disc 1\16 - Taxi War Dance.wav

Pre-gap length 0:00:02.44

Peak level 85.5 %
Extraction speed 3.5 X
Track quality 99.9 %
Test CRC 6C137CC1
Copy CRC 6C137CC1
Track not present in AccurateRip database
Copy OK

Track 17

Filename C:\My Documents\My FLAC\Paul Tanner, David Megill, Maurice Gerow - Jazz, Tenth Edition (2CD) (2005) [FLAC] {Sony Music Custom Marketing Group}\Disc 1\17 - The Man I Love.wav

Pre-gap length 0:00:02.39

Peak level 90.2 %
Extraction speed 4.5 X
Track quality 100.0 %
Test CRC 34B57DB0
Copy CRC 34B57DB0
Track not present in AccurateRip database
Copy OK

Track 18

Filename C:\My Documents\My FLAC\Paul Tanner, David Megill, Maurice Gerow - Jazz, Tenth Edition (2CD) (2005) [FLAC] {Sony Music Custom Marketing Group}\Disc 1\18 - Lester Leaps In.wav

Pre-gap length 0:00:03.25

Peak level 83.3 %
Extraction speed 4.8 X
Track quality 100.0 %
Test CRC 27033D0B
Copy CRC 27033D0B
Track not present in AccurateRip database
Copy OK

Track 19

Filename C:\My Documents\My FLAC\Paul Tanner, David Megill, Maurice Gerow - Jazz, Tenth Edition (2CD) (2005) [FLAC] {Sony Music Custom Marketing Group}\Disc 1\19 - I Got Rhythm.wav

Pre-gap length 0:00:02.32

Peak level 100.0 %
Extraction speed 5.4 X
Track quality 100.0 %
Test CRC FE5EA5F6
Copy CRC FE5EA5F6
Track not present in AccurateRip database
Copy OK

Track 20

Filename C:\My Documents\My FLAC\Paul Tanner, David Megill, Maurice Gerow - Jazz, Tenth Edition (2CD) (2005) [FLAC] {Sony Music Custom Marketing Group}\Disc 1\20 - In A Mellotone.wav

Pre-gap length 0:00:02.35

Peak level 90.2 %
Extraction speed 5.2 X
Track quality 100.0 %
Test CRC 797882AE
Copy CRC 797882AE
Track not present in AccurateRip database
Copy OK

Track 21

Filename C:\My Documents\My FLAC\Paul Tanner, David Megill, Maurice Gerow - Jazz, Tenth Edition (2CD) (2005) [FLAC] {Sony Music Custom Marketing Group}\Disc 1\21 - Passion Flower.wav

Pre-gap length 0:00:03.18

Peak level 66.5 %
Extraction speed 5.3 X
Track quality 100.0 %
Test CRC 3B678589
Copy CRC 3B678589
Track not present in AccurateRip database
Copy OK

Track 22

Filename C:\My Documents\My FLAC\Paul Tanner, David Megill, Maurice Gerow - Jazz, Tenth Edition (2CD) (2005) [FLAC] {Sony Music Custom Marketing Group}\Disc 1\22 - Ko-Ko.wav

Pre-gap length 0:00:02.55

Peak level 67.6 %
Extraction speed 3.8 X
Track quality 99.9 %
Test CRC FD4225BE
Copy CRC FD4225BE
Track not present in AccurateRip database
Copy OK

Track 23

Filename C:\My Documents\My FLAC\Paul Tanner, David Megill, Maurice Gerow - Jazz, Tenth Edition (2CD) (2005) [FLAC] {Sony Music Custom Marketing Group}\Disc 1\23 - Koko.wav

Pre-gap length 0:00:00.45

Peak level 95.4 %
Extraction speed 5.1 X
Track quality 100.0 %
Test CRC F9DB520E
Copy CRC F9DB520E
Track not present in AccurateRip database
Copy OK

Track 24

Filename C:\My Documents\My FLAC\Paul Tanner, David Megill, Maurice Gerow - Jazz, Tenth Edition (2CD) (2005) [FLAC] {Sony Music Custom Marketing Group}\Disc 1\24 - Bag's Groove.wav

Pre-gap length 0:00:01.16

Peak level 78.0 %
Extraction speed 5.2 X
Track quality 100.0 %
Test CRC 755C6B29
Copy CRC 755C6B29
Track not present in AccurateRip database
Copy OK


None of the tracks are present in the AccurateRip database

No errors occurred

End of status report

–– CUETools DB Plugin V2.1.6

[CTDB TOCID: 92XnsSDsd7iLP.y8gMKv0TKOO4c-] found
Submit result: 92XnsSDsd7iLP.y8gMKv0TKOO4c- has been confirmed
Track | CTDB Status
1 | (1/1) Accurately ripped
2 | (1/1) Accurately ripped
3 | (1/1) Accurately ripped
4 | (1/1) Accurately ripped
5 | (1/1) Accurately ripped
6 | (1/1) Accurately ripped
7 | (1/1) Accurately ripped
8 | (1/1) Accurately ripped
9 | (1/1) Accurately ripped
10 | (1/1) Accurately ripped
11 | (1/1) Accurately ripped
12 | (1/1) Accurately ripped
13 | (1/1) Accurately ripped
14 | (1/1) Accurately ripped
15 | (1/1) Accurately ripped
16 | (1/1) Accurately ripped
17 | (1/1) Accurately ripped
18 | (1/1) Accurately ripped
19 | (1/1) Accurately ripped
20 | (1/1) Accurately ripped
21 | (1/1) Accurately ripped
22 | (1/1) Accurately ripped
23 | (1/1) Accurately ripped
24 | (1/1) Accurately ripped


==== Log checksum 475B6E752B32C8A67E1F7AAF92A73AF6A72C892245B438C7D508ED3954DCFD7B ====







Exact Audio Copy V1.0 beta 6 from 9. April 2015

EAC extraction logfile from 14. September 2018, 11:54

Various Artists / Jazz, Tenth Edition (Disc 2)

Used drive : TSSTcorpDVD+-RW TS-L633C Adapter: 1 ID: 0

Read mode : Secure
Utilize accurate stream : Yes
Defeat audio cache : Yes
Make use of C2 pointers : No

Read offset correction : 6
Overread into Lead-In and Lead-Out : No
Fill up missing offset samples with silence : Yes
Delete leading and trailing silent blocks : No
Null samples used in CRC calculations : Yes
Used interface : Native Win32 interface for Win NT & 2000
Gap handling : Appended to previous track

Used output format : Internal WAV Routines
Sample format : 44.100 Hz; 16 Bit; Stereo


TOC of the extracted CD

Track | Start | Length | Start sector | End sector
––––––––––––––––––––––––––––-
1 | 0:00.00 | 7:04.52 | 0 | 31851
2 | 7:04.52 | 3:21.33 | 31852 | 46959
3 | 10:26.10 | 9:25.50 | 46960 | 89384
4 | 19:51.60 | 4:21.37 | 89385 | 108996
5 | 24:13.22 | 8:19.53 | 108997 | 146474
6 | 32:33.00 | 6:02.10 | 146475 | 173634
7 | 38:35.10 | 7:18.00 | 173635 | 206484
8 | 45:53.10 | 7:49.72 | 206485 | 241731
9 | 53:43.07 | 8:05.00 | 241732 | 278106
10 | 61:48.07 | 0:54.45 | 278107 | 282201
11 | 62:42.52 | 5:58.30 | 282202 | 309081
12 | 68:41.07 | 7:45.40 | 309082 | 343996
13 | 76:26.47 | 3:03.45 | 343997 | 357766


Track 1

Filename C:\My Documents\My FLAC\Paul Tanner, David Megill, Maurice Gerow - Jazz, Tenth Edition (2CD) (2005) [FLAC] {Sony Music Custom Marketing Group}\Disc 2\01 - The Modern Jazz Quartet - Django.wav

Pre-gap length 0:00:02.00

Peak level 69.7 %
Extraction speed 3.1 X
Track quality 100.0 %
Test CRC 03E507C7
Copy CRC 03E507C7
Track not present in AccurateRip database
Copy OK

Track 2

Filename C:\My Documents\My FLAC\Paul Tanner, David Megill, Maurice Gerow - Jazz, Tenth Edition (2CD) (2005) [FLAC] {Sony Music Custom Marketing Group}\Disc 2\02 - Miles Davis with The Gil Evans Orchestra - Summertime.wav

Pre-gap length 0:00:01.07

Peak level 70.7 %
Extraction speed 3.1 X
Track quality 100.0 %
Test CRC 57C1F502
Copy CRC 57C1F502
Track not present in AccurateRip database
Copy OK

Track 3

Filename C:\My Documents\My FLAC\Paul Tanner, David Megill, Maurice Gerow - Jazz, Tenth Edition (2CD) (2005) [FLAC] {Sony Music Custom Marketing Group}\Disc 2\03 - Miles Davis - So What.wav

Pre-gap length 0:00:01.73

Peak level 79.4 %
Extraction speed 3.8 X
Track quality 100.0 %
Test CRC D9CAA854
Copy CRC D9CAA854
Track not present in AccurateRip database
Copy OK

Track 4

Filename C:\My Documents\My FLAC\Paul Tanner, David Megill, Maurice Gerow - Jazz, Tenth Edition (2CD) (2005) [FLAC] {Sony Music Custom Marketing Group}\Disc 2\04 - Horace Silver Quintet - The Preacher.wav

Pre-gap length 0:00:03.23

Peak level 83.4 %
Extraction speed 3.9 X
Track quality 100.0 %
Test CRC BABB4594
Copy CRC BABB4594
Track not present in AccurateRip database
Copy OK

Track 5

Filename C:\My Documents\My FLAC\Paul Tanner, David Megill, Maurice Gerow - Jazz, Tenth Edition (2CD) (2005) [FLAC] {Sony Music Custom Marketing Group}\Disc 2\05 - Sonny Rollins - Blue 7.wav

Pre-gap length 0:00:03.57

Peak level 90.1 %
Extraction speed 4.4 X
Track quality 100.0 %
Test CRC FAD66CBC
Copy CRC FAD66CBC
Track not present in AccurateRip database
Copy OK

Track 6

Filename C:\My Documents\My FLAC\Paul Tanner, David Megill, Maurice Gerow - Jazz, Tenth Edition (2CD) (2005) [FLAC] {Sony Music Custom Marketing Group}\Disc 2\06 - Bill Evans Trio - Autumn Leaves.wav

Pre-gap length 0:00:03.18

Peak level 76.1 %
Extraction speed 4.6 X
Track quality 100.0 %
Test CRC 37E22D35
Copy CRC 37E22D35
Track not present in AccurateRip database
Copy OK

Track 7

Filename C:\My Documents\My FLAC\Paul Tanner, David Megill, Maurice Gerow - Jazz, Tenth Edition (2CD) (2005) [FLAC] {Sony Music Custom Marketing Group}\Disc 2\07 - Ornette Coleman - Faces And Places.wav

Pre-gap length 0:00:03.43

Peak level 100.0 %
Extraction speed 4.9 X
Track quality 100.0 %
Test CRC 1EDA56C5
Copy CRC 1EDA56C5
Track not present in AccurateRip database
Copy OK

Track 8

Filename C:\My Documents\My FLAC\Paul Tanner, David Megill, Maurice Gerow - Jazz, Tenth Edition (2CD) (2005) [FLAC] {Sony Music Custom Marketing Group}\Disc 2\08 - John Coltrane Quartet - A Love Supreme Part 1- Acknowledgment.wav

Pre-gap length 0:00:02.40

Peak level 72.6 %
Extraction speed 5.2 X
Track quality 100.0 %
Test CRC 8E13CD6F
Copy CRC 8E13CD6F
Track not present in AccurateRip database
Copy OK

Track 9

Filename C:\My Documents\My FLAC\Paul Tanner, David Megill, Maurice Gerow - Jazz, Tenth Edition (2CD) (2005) [FLAC] {Sony Music Custom Marketing Group}\Disc 2\09 - Miles Davis & Ensemble - Bitches Brew (Excerpt).wav

Pre-gap length 0:00:02.07

Peak level 82.2 %
Extraction speed 5.5 X
Track quality 100.0 %
Test CRC 82495F0F
Copy CRC 82495F0F
Track not present in AccurateRip database
Copy OK

Track 10

Filename C:\My Documents\My FLAC\Paul Tanner, David Megill, Maurice Gerow - Jazz, Tenth Edition (2CD) (2005) [FLAC] {Sony Music Custom Marketing Group}\Disc 2\10 - Chick Corea Quartet - Stretch It (Part 1).wav

Pre-gap length 0:00:02.40

Peak level 100.0 %
Extraction speed 3.5 X
Track quality 100.0 %
Test CRC F0965829
Copy CRC F0965829
Track not present in AccurateRip database
Copy OK

Track 11

Filename C:\My Documents\My FLAC\Paul Tanner, David Megill, Maurice Gerow - Jazz, Tenth Edition (2CD) (2005) [FLAC] {Sony Music Custom Marketing Group}\Disc 2\11 - Weather Report - Birdland.wav

Pre-gap length 0:00:01.10

Peak level 100.0 %
Extraction speed 5.9 X
Track quality 100.0 %
Test CRC 443D86E8
Copy CRC 443D86E8
Track not present in AccurateRip database
Copy OK

Track 12

Filename C:\My Documents\My FLAC\Paul Tanner, David Megill, Maurice Gerow - Jazz, Tenth Edition (2CD) (2005) [FLAC] {Sony Music Custom Marketing Group}\Disc 2\12 - Michael Brecker - Itsbynne Reel (Excerpt).wav

Pre-gap length 0:00:00.72

Peak level 98.3 %
Extraction speed 6.0 X
Track quality 100.0 %
Test CRC 12AB7AD5
Copy CRC 12AB7AD5
Track not present in AccurateRip database
Copy OK

Track 13

Filename C:\My Documents\My FLAC\Paul Tanner, David Megill, Maurice Gerow - Jazz, Tenth Edition (2CD) (2005) [FLAC] {Sony Music Custom Marketing Group}\Disc 2\13 - Wynton Marsalis - Hackensack.wav

Pre-gap length 0:00:04.10

Peak level 100.0 %
Extraction speed 4.0 X
Track quality 99.9 %
Test CRC 3B44FA4F
Copy CRC 3B44FA4F
Track not present in AccurateRip database
Copy OK


None of the tracks are present in the AccurateRip database

No errors occurred

End of status report

–– CUETools DB Plugin V2.1.6

[CTDB TOCID: qLVKqo1eHc_3AHnfU4ydBVWXeNI-] found
Submit result: qLVKqo1eHc_3AHnfU4ydBVWXeNI- has been confirmed
Track | CTDB Status
1 | (3/3) Accurately ripped
2 | (3/3) Accurately ripped
3 | (3/3) Accurately ripped
4 | (3/3) Accurately ripped
5 | (3/3) Accurately ripped
6 | (3/3) Accurately ripped
7 | (3/3) Accurately ripped
8 | (3/3) Accurately ripped
9 | (3/3) Accurately ripped
10 | (3/3) Accurately ripped
11 | (3/3) Accurately ripped
12 | (3/3) Accurately ripped
13 | (3/3) Accurately ripped


==== Log checksum F33BB63D923D2EDAC89C7B2EA0BE17D48278FE5CE6FB33475D1220E4F84D7769 ====


Paul Tanner/David Megill/Maurice Gerow - Jazz: Tenth Edition (2CD) (2005) {Sony Music Custom Marketing Group}