Subcategories
Tags
Language
Tags

VA - Putumayo Presents Israel (2007) {Putumayo World Music}

Posted By: TestTickles
VA - Putumayo Presents Israel (2007) {Putumayo World Music}

VA - Putumayo Presents Israel (2007) {Putumayo World Music}
EAC Rip | FLAC with CUE and LOG | scans | 312 mb
MP3 CBR 320 kbps | RAR | 138 mb
Genre: world

Putumayo Presents Israel is a 2007 compilation CD featuring some of the most beautiful music of the nation of Israel. This was released by Putumayo World Music.

VA - Putumayo Presents Israel (2007) {Putumayo World Music}

01. Etti Ankri - Nilkach Meemeni Sod (4:02)
02. Itay Pearl - Chipopo (3:01)
03. Hadas Dagul - Seret Eelem (3:28)
04. Rona Kenan with Gidi Gov - Ha'rikud Ha'muzar Shel Ha'lev (4:05)
05. Mosh Ben Ari - Eem Rak Na'iz (3:43)
06. Moshav Band - Bereshit (3:54)
07. Zafa - Tariki (3:24)
08. Sheva - Ashrey Ha'ish (3:24)
09. David Broza - Srochim (2:40)
10. Tea Packs - Vehapa'am Shir Ahava (2:25)
11. Amal Murkus - Ta'alu (3:50)
12. The Idan Raichel Project - Mi Ma'amakim (5:51)

Exact Audio Copy V0.99 prebeta 5 from 4. May 2009

EAC extraction logfile from 15. November 2010, 6:16

VA - Putumayo Presents Israel

Used drive : HL-DT-STDVD-RAM GSA-H54N Adapter: 0 ID: 0

Read mode : Secure
Utilize accurate stream : Yes
Defeat audio cache : Yes
Make use of C2 pointers : No

Read offset correction : 102
Overread into Lead-In and Lead-Out : No
Fill up missing offset samples with silence : Yes
Delete leading and trailing silent blocks : No
Null samples used in CRC calculations : Yes
Used interface : Native Win32 interface for Win NT & 2000

Used output format : User Defined Encoder
Selected bitrate : 320 kBit/s
Quality : High
Add ID3 tag : No
Command line compressor : C:\Program Files\Exact Audio Copy\Flac\flac.exe
Additional command line options : -8 -V %s


TOC of the extracted CD

Track | Start | Length | Start sector | End sector
––––––––––––––––––––––––––––-
1 | 0:00.00 | 4:01.66 | 0 | 18140
2 | 4:01.66 | 3:01.27 | 18141 | 31742
3 | 7:03.18 | 3:27.47 | 31743 | 47314
4 | 10:30.65 | 4:05.03 | 47315 | 65692
5 | 14:35.68 | 3:43.11 | 65693 | 82428
6 | 18:19.04 | 3:54.29 | 82429 | 100007
7 | 22:13.33 | 3:24.11 | 100008 | 115318
8 | 25:37.44 | 3:24.20 | 115319 | 130638
9 | 29:01.64 | 2:40.07 | 130639 | 142645
10 | 31:41.71 | 2:24.48 | 142646 | 153493
11 | 34:06.44 | 3:49.54 | 153494 | 170722
12 | 37:56.23 | 5:51.10 | 170723 | 197057


Range status and errors

Selected range

Filename C:\cuntfist\FLAC\VA - Putumayo Presents Israel (2007) [FLAC] {Putumayo}\VA - Putumayo Presents Israel (2007).wav

Peak level 97.7 %
Range quality 100.0 %
Test CRC AF409951
Copy CRC AF409951
Copy OK

No errors occurred


AccurateRip summary

Track 1 accurately ripped (confidence 9) [4B9DDF76]
Track 2 accurately ripped (confidence 9) [0A324181]
Track 3 accurately ripped (confidence 9) [45512BC1]
Track 4 accurately ripped (confidence 9) [BC849DCE]
Track 5 accurately ripped (confidence 9) [6D4AC31C]
Track 6 accurately ripped (confidence 10) [46101FFA]
Track 7 accurately ripped (confidence 10) [89E54FE8]
Track 8 accurately ripped (confidence 9) [D9F05B12]
Track 9 accurately ripped (confidence 9) [8BF61328]
Track 10 accurately ripped (confidence 9) [FDB4DBC4]
Track 11 accurately ripped (confidence 9) [C22D1CD1]
Track 12 accurately ripped (confidence 9) [C5206BF8]

All tracks accurately ripped

End of status report


VA - Putumayo Presents Israel (2007) {Putumayo World Music}


Thank you to the original uploader.