Tags
Language
Tags

Palatino - Romano Benita Ferris Fresu (2001) {EmArcy}

Posted By: tiburon
Palatino - Romano Benita Ferris Fresu (2001) {EmArcy}

Palatino - Romano Benita Ferris Fresu (2001) {EmArcy}
EAC 1.0b3 | FLAC tracks level 8 | Cue+Log+M3U | Full Scans 600dpi | 488MB + 5% Recovery
MP3 CBR 320 Kbps | 128MB + 5% Recovery
Genre: Jazz
Palatino - Romano Benita Ferris Fresu (2001) {EmArcy}

All four members of the collective calling itself Palatino have often carved out niches that place them just outside popular currents, and this one is no exception. There is a gentle though propulsive quality to the pianoless quartet that relies on the unusual instrumentation of trombone, trumpet, bass, and drums. All the tunes are originals by each of these seasoned bandmembers, except Tadd Dameron's "On a Misty Night." This is the sort of fare that grows on you, the kind that requires close attention to appreciate its nuances. The short lengths of the tunes prevent any meandering, though there is a sameness to some of the pieces as a result of the limited instrumentation. The two horns, trombonist Glenn Ferris and trumpeter Paolo Fresu, are stylistically similar, each offering understated and clearly articulated improvisations – clean, sparse, and economical. A good example of how good they can sound together comes on Ferris' "Sud-Ouest Jump," taken at a brisk clip with the horns soloing together intimately and intricately, the harmonies tight and crisp. Another winner is Romano's "Sapore di Si Minore" with its nostalgic laid-back ambience, 1950s-like solo from Fresu, and a beautiful muted contribution from the trombonist. Throughout, Romano carefully navigates, never letting the core explode and keeping the focus on an easy delicacy. Bassist Michel Benita plays an important part harmonically, and his short "Juke" gives Romano some breathing space, which complements his solo feature on his own "Drum Strum." The Dameron piece, which closes the album, features some particularly inspired work from Ferris.
Track List
01 - Tempete a Florence
02 - Sud-Ouest Jump
03 - Sapore di si minore
04 - La sevigliana
05 - Soleil a Genes
06 - Into Somewhere
07 - City Boy
08 - Drum Strum
09 - Aeroidea
10 - Mormorio
11 - Arte povera
12 - Holy
13 - In My Dream
14 - Juke
15 - In a Misty Night

musicians
Double Bass – Michel Benita
Drums – Aldo Romano
Trombone – Glenn Ferris
Trumpet – Paolo Fresu

Produced by Palatino


Exact Audio Copy V1.0 beta 3 from 29. August 2011

Отчёт EAC об извлечении, выполненном 31. января 2013, 21:01

Palatino / Romano Benita Ferris Fresu (chap. 3)

Дисковод: ASUS DRW-24B3ST Adapter: 1 ID: 0

Режим чтения : Достоверность
Использование точного потока : Да
Отключение кэша аудио : Да
Использование указателей C2 : Нет

Коррекция смещения при чтении : 6
Способность читать области Lead-in и Lead-out : Нет
Заполнение пропущенных сэмплов тишиной : Да
Удаление блоков с тишиной в начале и конце : Нет
При вычислениях CRC использовались нулевые сэмплы : Да
Интерфейс : Встроенный Win32-интерфейс для Win NT/2000
Обработка зазоров : Добавлено к предыдущему треку

Выходной формат : Пользовательский кодировщик
Выбранный битрейт : 1024 kBit/s
Качество : Высокий
Добавление ID3-тега : Нет
Утилита сжатия : C:\Program Files\Exact Audio Copy\Flac\flac.exe
Дополнительные параметры : -V -8 -T "Genre=%genre%" -T "Artist=%artist%" -T "Title=%title%" -T "Album=%albumtitle%" -T "Date=%year%" -T "Tracknumber=%tracknr%" -T "Comment=%comment%" %source%


TOC извлечённого CD

Трек | Старт | Длительность | Начальный сектор | Конечный сектор
––––––––––––––––––––––––––––––––––-
1 | 0:00.00 | 5:14.12 | 0 | 23561
2 | 5:14.12 | 2:30.65 | 23562 | 34876
3 | 7:45.02 | 4:52.23 | 34877 | 56799
4 | 12:37.25 | 4:10.65 | 56800 | 75614
5 | 16:48.15 | 2:55.10 | 75615 | 88749
6 | 19:43.25 | 3:43.62 | 88750 | 105536
7 | 23:27.12 | 3:54.65 | 105537 | 123151
8 | 27:22.02 | 1:56.68 | 123152 | 131919
9 | 29:18.70 | 1:59.30 | 131920 | 140874
10 | 31:18.25 | 4:33.65 | 140875 | 161414
11 | 35:52.15 | 2:50.57 | 161415 | 174221
12 | 38:42.72 | 6:25.10 | 174222 | 203106
13 | 45:08.07 | 3:09.55 | 203107 | 217336
14 | 48:17.62 | 1:57.20 | 217337 | 226131
15 | 50:15.07 | 5:44.23 | 226132 | 251954


Трек 1

Имя файла C:\Documents and Settings\Sergei\Мои документы\Моя музыка\EAC\01. Tempete a Florence.wav

Длина предзазора 0:00:02.00

Пиковый уровень 99.9 %
Скорость извлечения 3.4 X
Качество трека 100.0 %
CRC теста 7A69E865
CRC копии 7A69E865
Точное извлечение (достоверность 3) [437E83CC] (AR v2)
Копирование… OK

Трек 2

Имя файла C:\Documents and Settings\Sergei\Мои документы\Моя музыка\EAC\02. Sud-Ouest Jump.wav

Длина предзазора 0:00:02.62

Пиковый уровень 88.6 %
Скорость извлечения 3.4 X
Качество трека 100.0 %
CRC теста D1E3EB32
CRC копии D1E3EB32
Точное извлечение (достоверность 3) [78032F3C] (AR v2)
Копирование… OK

Трек 3

Имя файла C:\Documents and Settings\Sergei\Мои документы\Моя музыка\EAC\03. Sapore di Si Minore.wav

Длина предзазора 0:00:01.62

Пиковый уровень 99.9 %
Скорость извлечения 4.1 X
Качество трека 100.0 %
CRC теста F6EEE613
CRC копии F6EEE613
Точное извлечение (достоверность 3) [0DB811B8] (AR v2)
Копирование… OK

Трек 4

Имя файла C:\Documents and Settings\Sergei\Мои документы\Моя музыка\EAC\04. La Sevigliana.wav

Длина предзазора 0:00:02.63

Пиковый уровень 99.9 %
Скорость извлечения 4.4 X
Качество трека 100.0 %
CRC теста 59EFEB36
CRC копии 59EFEB36
Точное извлечение (достоверность 3) [1AEEDE16] (AR v2)
Копирование… OK

Трек 5

Имя файла C:\Documents and Settings\Sergei\Мои документы\Моя музыка\EAC\05. Soleil a Genes.wav

Длина предзазора 0:00:03.05

Пиковый уровень 99.9 %
Скорость извлечения 4.3 X
Качество трека 100.0 %
CRC теста 11F4D165
CRC копии 11F4D165
Точное извлечение (достоверность 3) [16F80DC3] (AR v2)
Копирование… OK

Трек 6

Имя файла C:\Documents and Settings\Sergei\Мои документы\Моя музыка\EAC\06. Into Somewhere.wav

Пиковый уровень 99.4 %
Скорость извлечения 4.7 X
Качество трека 100.0 %
CRC теста 4B499E2D
CRC копии 4B499E2D
Точное извлечение (достоверность 3) [BD103C0E] (AR v2)
Копирование… OK

Трек 7

Имя файла C:\Documents and Settings\Sergei\Мои документы\Моя музыка\EAC\07. City Boy.wav

Длина предзазора 0:00:02.10

Пиковый уровень 99.9 %
Скорость извлечения 5.0 X
Качество трека 100.0 %
CRC теста D2AB8D31
CRC копии D2AB8D31
Точное извлечение (достоверность 3) [4084E3BB] (AR v2)
Копирование… OK

Трек 8

Имя файла C:\Documents and Settings\Sergei\Мои документы\Моя музыка\EAC\08. Drum Strum.wav

Пиковый уровень 99.9 %
Скорость извлечения 4.5 X
Качество трека 100.0 %
CRC теста 9F9F56BB
CRC копии 9F9F56BB
Точное извлечение (достоверность 3) [E6B111C6] (AR v2)
Копирование… OK

Трек 9

Имя файла C:\Documents and Settings\Sergei\Мои документы\Моя музыка\EAC\09. Aeroidea.wav

Пиковый уровень 99.9 %
Скорость извлечения 4.6 X
Качество трека 100.0 %
CRC теста 6A82B5BC
CRC копии 6A82B5BC
Точное извлечение (достоверность 3) [06210301] (AR v2)
Копирование… OK

Трек 10

Имя файла C:\Documents and Settings\Sergei\Мои документы\Моя музыка\EAC\10. Mormorio.wav

Длина предзазора 0:00:01.18

Пиковый уровень 99.9 %
Скорость извлечения 4.3 X
Качество трека 99.9 %
CRC теста 042DCED7
CRC копии 042DCED7
Точное извлечение (достоверность 3) [60D03581] (AR v2)
Копирование… OK

Трек 11

Имя файла C:\Documents and Settings\Sergei\Мои документы\Моя музыка\EAC\11. Arte Povera.wav

Длина предзазора 0:00:02.43

Пиковый уровень 99.9 %
Скорость извлечения 5.0 X
Качество трека 100.0 %
CRC теста FA46D091
CRC копии FA46D091
Точное извлечение (достоверность 3) [716B7A00] (AR v2)
Копирование… OK

Трек 12

Имя файла C:\Documents and Settings\Sergei\Мои документы\Моя музыка\EAC\12. Holy.wav

Длина предзазора 0:00:02.52

Пиковый уровень 99.9 %
Скорость извлечения 4.8 X
Качество трека 99.9 %
CRC теста EDE8C616
CRC копии EDE8C616
Точное извлечение (достоверность 3) [E834E078] (AR v2)
Копирование… OK

Трек 13

Имя файла C:\Documents and Settings\Sergei\Мои документы\Моя музыка\EAC\13. In My Dream.wav

Длина предзазора 0:00:03.17

Пиковый уровень 99.9 %
Скорость извлечения 5.0 X
Качество трека 100.0 %
CRC теста F4500FF0
CRC копии F4500FF0
Точное извлечение (достоверность 3) [D54B349C] (AR v2)
Копирование… OK

Трек 14

Имя файла C:\Documents and Settings\Sergei\Мои документы\Моя музыка\EAC\14. Juke.wav

Длина предзазора 0:00:02.42

Пиковый уровень 99.9 %
Скорость извлечения 4.5 X
Качество трека 100.0 %
CRC теста C6F701B6
CRC копии C6F701B6
Точное извлечение (достоверность 3) [E630D507] (AR v2)
Копирование… OK

Трек 15

Имя файла C:\Documents and Settings\Sergei\Мои документы\Моя музыка\EAC\15. In a Misty Night.wav

Длина предзазора 0:00:03.25

Пиковый уровень 99.9 %
Скорость извлечения 4.8 X
Качество трека 99.9 %
CRC теста 1A71D788
CRC копии 1A71D788
Точное извлечение (достоверность 3) [D15C428C] (AR v2)
Копирование… OK


Все треки извлечены точно

Ошибок не произошло

Конец отчёта

==== Контрольная сумма отчёта 14B347066F01090EA7C18D8B45E01A798D68FDE53BBE41147D01D6E4BE9220D3 ====

Palatino - Romano Benita Ferris Fresu (2001) {EmArcy}
Palatino - Romano Benita Ferris Fresu (2001) {EmArcy}


Thanks to the original ripper