Tags
Language
Tags

Paolo Fresu - Musica Da Lettura (2021) {Tuk Music}

Posted By: tiburon
Paolo Fresu - Musica Da Lettura (2021) {Tuk Music}

Paolo Fresu - Musica Da Lettura (2021) {Tuk Music}
Digital Download | FLAC tracks | Digital Booklet | 333MB + 5% Recovery
MP3 CBR 320 Kbps | 145MB + 5% Recovery
Genre: Jazz, Post-Bop, Chamber Music

With 850,000 volumes, 120,000 old books and a collection of 7,500 newspapers, the Municipal Library of the Archiginnasio of Bologna is a place steeped in history. It was here, in early 2021, that Paolo Fresu decided to celebrate his own history. For his 60th birthday, the Sardinian trumpet player gathered a handful of relatives for an exceptional concert, obviously without an audience. Together with bandoneonist Daniele di Bonaventura, pianist Dino Rubino, double bassist Marco Bardoscia and the Alborada Quartet, he wandered through various rooms in this magnificent library performing pieces in his own style. A colourful and hybrid jazz, European at heart and always strolling around. Without ever being a birthday retrospective with the feel of a funeral, Musica da Lettura shows above all the extent of Fresu's genius: an avid researcher and passer-by, capable of drawing on popular musical traditions from cinema, literature, classical or folk music and, of course, jazz… The repertoire of this album (available exclusively on Qobuz) mixes popular songs and themes speckled with electronic effects, to underline the distance between the history of the venue and the contemporaneity of the sounds. On El Ciego, the European tradition intertwines with Latin America. On Notte a San Stino, an almost new age composition that he performs alone, Fresu interweaves several takes of his instrument. And to further extend the field of possibilities, he draws his inspiration from Strauss' Metamorphoses, which he bathes in a solemnity inherited from Rossini. Chamber music or futuristic, nostalgic or groovy, meditative or dreamy, nothing is missing from this fiesta between friends… But the essence of this magnificent album lies in the organic and human character of the music. Despite the literary references and multiple influences, Paolo Fresu's trumpet remains a simple and beautiful language that speaks to the heart. A language brought alive by the bond he enjoys with his fellow musicians, all in tune with this anniversary that one would dream of endlessly…
Track List
01. O Que Será / El Pueblo Unido Jamás Será V
02. Mineralogia
03. No potho reposare
04. Dici otto
05. Ferlinghetti
06. El Ciego
07. Notte a San stino
08. The Way Forward (Introduction) / Metamorfosi
09. Preghiera in gennaio
10. Catalina
11. M'U
12. Abide with Me

musicians
Paolo Fresu (tromba, flicorno, elettronica)
il Quartetto d’archi Alborada (Anton Berovski, Sonia Peana, Nico Ciricugno, Piero Salvatori),
Daniele di Bonaventura (bandoneon ed effetti),
Dino Rubino (pianoforte),
Marco Bardoscia (contrabbasso)


AUDIOCHECKER v2.0 beta (build 457) - by Dester - opdester@freemail.hu
~~~~~~~~~~~~~~~~~~~~~~~~~~~~~~~~~~
-=== DO NOT EDIT THIS FILE! ===-

Path: …\Paolo Fresu - Musica Da Lettura (2021) [FLAC]

01 -=- 01 - O Que Sera - El Pueblo Unido Jamas Sera Vencido (Paolo Fresu feat. Daniele Di Bonaventura).flac -=- CDDA (99%)
02 -=- 02 - Mineralogia (Paolo Fresu feat. Marco Bardoscia & Dino Rubino).flac -=- CDDA (100%)
03 -=- 03 - No potho reposare (Paolo Fresu feat. Daniele Di Bonaventura & Quartetto Alborada).flac -=- CDDA (100%)
04 -=- 04 - Dici otto (Paolo Fresu feat. Marco Bardoscia).flac -=- CDDA (100%)
05 -=- 05 - Ferlinghetti (Paolo Fresu feat. Marco Bardoscia, Daniele Di Bonaventura & Dino Rubino).flac -=- CDDA (100%)
06 -=- 06 - El Ciego (Paolo Fresu feat. Daniele Di Bonaventura).flac -=- CDDA (100%)
07 -=- 07 - Notte a San stino.flac -=- CDDA (100%)
08 -=- 08 - The Way Forward (Introduction) - Metamorfosi (Paolo Fresu feat. Marco Bardoscia, Dino Rubino & Quartet.flac -=- CDDA (100%)
09 -=- 09 - Preghiera in gennaio (Paolo Fresu feat. Daniele Di Bonaventura).flac -=- CDDA (100%)
10 -=- 10 - Catalina (Paolo Fresu feat. Marco Bardoscia & Dino Rubino).flac -=- CDDA (100%)
11 -=- 11 - M'U (Paolo Fresu feat. Quartetto Alborada).flac -=- CDDA (100%)
12 -=- 12 - Abide with Me (Paolo Fresu feat. Marco Bardoscia, Daniele Di Bonaventura, Dino Rubino & Quartetto Albo.flac -=- CDDA (100%)

Summary 99,92% CDDA

147335716


foobar2000 1.3.13 / Dynamic Range Meter 1.1.1
log date: 2021-05-30 20:27:02

––––––––––––––––––––––––––––––––––––––––
Analyzed: Paolo Fresu / Musica da lettura
––––––––––––––––––––––––––––––––––––––––

DR Peak RMS Duration Track
––––––––––––––––––––––––––––––––––––––––
DR9 -0.48 dB -13.14 dB 6:38 01-O Que Será / El Pueblo Unido Jamás Será Vencido
DR10 -0.52 dB -13.26 dB 4:47 02-Mineralogia
DR8 -0.79 dB -12.61 dB 3:44 03-No potho reposare
DR9 -0.19 dB -11.67 dB 4:40 04-Dici otto
DR10 -0.14 dB -14.34 dB 3:21 05-Ferlinghetti
DR9 -0.17 dB -12.87 dB 5:12 06-El Ciego
DR7 -0.41 dB -8.44 dB 3:06 07-Notte a San stino
DR8 -0.03 dB -12.01 dB 5:46 08-The Way Forward (Introduction) / Metamorfosi
DR9 -0.17 dB -13.54 dB 5:08 09-Preghiera in gennaio
DR12 -0.67 dB -17.91 dB 5:27 10-Catalina
DR10 -0.28 dB -12.91 dB 2:58 11-M'U
DR8 -0.18 dB -11.60 dB 4:37 12-Abide with Me
––––––––––––––––––––––––––––––––––––––––

Number of tracks: 12
Official DR value: DR9

Samplerate: 44100 Hz
Channels: 2
Bits per sample: 16
Bitrate: 821 kbps
Codec: FLAC
================================================================================