Tags
Language
Tags

Paolo Fresu Quintet - 30! (2014) {Tuk Music}

Posted By: tiburon
Paolo Fresu Quintet - 30! (2014) {Tuk Music}

Paolo Fresu Quintet - 30! (2014) {Tuk Music}
EAC 1.0b3 | FLAC tracks level 8 | Cue+Log+M3U | Full Scans 600dpi | 438MB + 5% Recovery
MP3 CBR 320 Kbps | 135MB + 5% Recovery
Genre: Jazz, Fusion
Paolo Fresu Quintet - 30! (2014) {Tuk Music}

Paolo Fresu Quintet was founded in 1984 by the will of Paolo Fresu and Roberto Cipelli and today is rightfully part of the history of the modern Italian jazz, celebrating - with the same original training - thirty years of life, a very rare thing in 'entire history of African American music.
Track List
01. Chiaro 5:36
02. Till The End 5:00
03. Trenta Giorni 3:19
04. Perspective From The Train 3:21
05. Trasparente 5:07
06. Aquile 5:47
07. Giallefoglie 8:25
08. Scuro 3:32
09. Gufo 5:23
10. When I Am Laid In Heart 2:40
11. Go Go B. 4:38
12. Words Of Wisdom 3:48
13. Colibri 2:27

musicians
Double Bass – Attilio Zanchi
Drums, Percussion – Ettore Fioravanti
Piano, Keyboards – Roberto Cipelli
Tenor Saxophone, Soprano Saxophone – Tino Tracanna
Trumpet, Flugelhorn – Paolo Fresu

Featuring Bonnot in "Chiaro"


Exact Audio Copy V1.0 beta 3 from 29. August 2011

EAC extraction logfile from 7. April 2016, 0:09

Paolo Fresu Quintet / 30!

Used drive : PLEXTOR DVDR PX-L890SA Adapter: 5 ID: 1

Read mode : Secure
Utilize accurate stream : Yes
Defeat audio cache : Yes
Make use of C2 pointers : No

Read offset correction : 6
Overread into Lead-In and Lead-Out : No
Fill up missing offset samples with silence : Yes
Delete leading and trailing silent blocks : No
Null samples used in CRC calculations : Yes
Used interface : Native Win32 interface for Win NT & 2000
Gap handling : Appended to previous track

Used output format : User Defined Encoder
Selected bitrate : 128 kBit/s
Quality : High
Add ID3 tag : No
Command line compressor : C:\Program Files (x86)\Exact Audio Copy\FLAC\FLAC.EXE
Additional command line options : -8 -V -T "ARTIST=%artist%" -T "TITLE=%title%" -T "ALBUM=%albumtitle%" -T "DATE=%year%" -T "TRACKNUMBER=%tracknr%" -T "TOTALTRACKS=%numtracks%" -T "GENRE=%genre%" -T "ALBUMARTIST=%albumartist%" -T "ALBUM ARTIST=%albumartist%" -T "COMMENT=EAC Secure Mode, Test & Copy, AccurateRip, FLAC -8" %source%


TOC of the extracted CD

Track | Start | Length | Start sector | End sector
––––––––––––––––––––––––––––-
1 | 0:00.00 | 5:36.27 | 0 | 25226
2 | 5:36.27 | 5:00.26 | 25227 | 47752
3 | 10:36.53 | 3:18.57 | 47753 | 62659
4 | 13:55.35 | 3:21.26 | 62660 | 77760
5 | 17:16.61 | 5:07.34 | 77761 | 100819
6 | 22:24.20 | 5:46.32 | 100820 | 126801
7 | 28:10.52 | 8:25.26 | 126802 | 164702
8 | 36:36.03 | 3:31.48 | 164703 | 180575
9 | 40:07.51 | 5:22.54 | 180576 | 204779
10 | 45:30.30 | 2:39.49 | 204780 | 216753
11 | 48:10.04 | 4:37.31 | 216754 | 237559
12 | 52:47.35 | 3:48.02 | 237560 | 254661
13 | 56:35.37 | 2:23.14 | 254662 | 265400


Track 1

Filename E:\01 - Chiaro.wav

Pre-gap length 0:00:02.00

Peak level 98.4 %
Extraction speed 3.7 X
Track quality 100.0 %
Test CRC 68BC80A3
Copy CRC 68BC80A3
Accurately ripped (confidence 3) [28C64DC2] (AR v2)
Copy OK

Track 2

Filename E:\02 - Till the End.wav

Pre-gap length 0:00:03.06

Peak level 96.7 %
Extraction speed 4.2 X
Track quality 100.0 %
Test CRC FAFD75BD
Copy CRC FAFD75BD
Accurately ripped (confidence 3) [0363208B] (AR v2)
Copy OK

Track 3

Filename E:\03 - Trenta Giorni.wav

Pre-gap length 0:00:03.26

Peak level 97.5 %
Extraction speed 4.3 X
Track quality 100.0 %
Test CRC 2D47DDF5
Copy CRC 2D47DDF5
Accurately ripped (confidence 3) [4BEF8655] (AR v2)
Copy OK

Track 4

Filename E:\04 - Perspective From the Train.wav

Pre-gap length 0:00:02.74

Peak level 100.0 %
Extraction speed 4.5 X
Track quality 100.0 %
Test CRC D7728AA2
Copy CRC D7728AA2
Accurately ripped (confidence 3) [E5DCF17F] (AR v2)
Copy OK

Track 5

Filename E:\05 - Trasparente.wav

Pre-gap length 0:00:03.08

Peak level 97.4 %
Extraction speed 5.1 X
Track quality 100.0 %
Test CRC 4F3E1FCC
Copy CRC 4F3E1FCC
Accurately ripped (confidence 3) [115F3D3F] (AR v2)
Copy OK

Track 6

Filename E:\06 - Aquile.wav

Pre-gap length 0:00:02.52

Peak level 96.6 %
Extraction speed 5.6 X
Track quality 100.0 %
Test CRC EDF6607F
Copy CRC EDF6607F
Accurately ripped (confidence 3) [0F2B5E2B] (AR v2)
Copy OK

Track 7

Filename E:\07 - Giallefoglie.wav

Pre-gap length 0:00:02.59

Peak level 96.6 %
Extraction speed 6.2 X
Track quality 100.0 %
Test CRC 7BB13F2B
Copy CRC 7BB13F2B
Accurately ripped (confidence 3) [CE501BCB] (AR v2)
Copy OK

Track 8

Filename E:\08 - Scuro.wav

Pre-gap length 0:00:05.15

Peak level 97.9 %
Extraction speed 6.0 X
Track quality 100.0 %
Test CRC 8753107A
Copy CRC 8753107A
Accurately ripped (confidence 3) [397113C7] (AR v2)
Copy OK

Track 9

Filename E:\09 - Gufo.wav

Pre-gap length 0:00:04.23

Peak level 100.0 %
Extraction speed 5.4 X
Track quality 99.9 %
Test CRC 13D050A8
Copy CRC 13D050A8
Accurately ripped (confidence 3) [50C0DF20] (AR v2)
Copy OK

Track 10

Filename E:\10 - When I Am Laid In Heart.wav

Pre-gap length 0:00:03.59

Peak level 97.0 %
Extraction speed 6.1 X
Track quality 100.0 %
Test CRC AD775708
Copy CRC AD775708
Accurately ripped (confidence 3) [9F9EE169] (AR v2)
Copy OK

Track 11

Filename E:\11 - Go Go B.wav

Pre-gap length 0:00:05.00

Peak level 98.3 %
Extraction speed 6.9 X
Track quality 100.0 %
Test CRC 920896DA
Copy CRC 920896DA
Accurately ripped (confidence 3) [A9793E3A] (AR v2)
Copy OK

Track 12

Filename E:\12 - Words of Wisdom.wav

Pre-gap length 0:00:03.41

Peak level 96.6 %
Extraction speed 6.8 X
Track quality 100.0 %
Test CRC 85794DAE
Copy CRC 85794DAE
Accurately ripped (confidence 3) [C8201881] (AR v2)
Copy OK

Track 13

Filename E:\13 - Colibri.wav

Pre-gap length 0:00:04.03

Peak level 96.6 %
Extraction speed 6.5 X
Track quality 100.0 %
Test CRC 52DB8B5A
Copy CRC 52DB8B5A
Accurately ripped (confidence 3) [08B825A9] (AR v2)
Copy OK


All tracks accurately ripped

No errors occurred

End of status report

==== Log checksum 7502F290B6556AC66EBC2846C9A134865756BBE9C95834656C0B129B48385EC3 ====


––––––––––––––––––––––––––––––––––––––––
Analyzed: Paolo Fresu Quintet / 30!
––––––––––––––––––––––––––––––––––––––––

DR Peak RMS Duration Track
––––––––––––––––––––––––––––––––––––––––
DR10 -0.13 dB -12.24 dB 5:36 01-Chiaro
DR9 -0.29 dB -13.09 dB 5:00 02-Till the End
DR10 -0.21 dB -12.42 dB 3:19 03-Trenta Giorni
DR9 0.00 dB -11.39 dB 3:21 04-Perspective From the Train
DR11 -0.22 dB -14.87 dB 5:07 05-Trasparente
DR12 -0.30 dB -15.30 dB 5:46 06-Aquile
DR11 -0.30 dB -15.24 dB 8:25 07-Giallefoglie
DR8 -0.18 dB -11.41 dB 3:32 08-Scuro
DR10 0.00 dB -12.35 dB 5:23 09-Gufo
DR10 -0.26 dB -13.14 dB 2:40 10-When I Am Laid In Heart
DR8 -0.15 dB -10.32 dB 4:37 11-Go Go B
DR13 -0.30 dB -16.44 dB 3:48 12-Words of Wisdom
DR12 -0.30 dB -15.92 dB 2:23 13-Colibri
––––––––––––––––––––––––––––––––––––––––

Number of tracks: 13
Official DR value: DR10

Samplerate: 44100 Hz
Channels: 2
Bits per sample: 16
Bitrate: 776 kbps
Codec: FLAC
================================================================================

Paolo Fresu Quintet - 30! (2014) {Tuk Music}
Paolo Fresu Quintet - 30! (2014) {Tuk Music}
Paolo Fresu Quintet - 30! (2014) {Tuk Music}


Thanks to the original ripper