Tags
Language
Tags

Paolo Fresu & Uri Caine - Things (2006) {Blue Note}

Posted By: tiburon
Paolo Fresu & Uri Caine - Things (2006) {Blue Note}

Paolo Fresu & Uri Caine - Things (2006) {Blue Note}
EAC 0.99pb5 | FLAC tracks level 8 | Cue+Log+M3U | Full Scans 400dpi | 339MB + 5% Recovery
MP3 CBR 320 Kbps | 152MB + 5% Recovery
Genre: Jazz, Post-Bop
Paolo Fresu & Uri Caine - Things (2006) {Blue Note}

Virtuosity of those two musicians is incredible to discover. They hitting heavy on beautiful standard "Dear Old Stockholm" with grace and gentleness but having guts to alternate harmony in dignified, balanced way. Uri Caine, as it is my second encounter with his artistry (I've only tried "ThePhiladelphiaExperiment"), astonished me with marvelous and complex technique of phrasing with left hand. The illusion (well…) of whole rhytmic section conveyed in his playing cannot be denied - couple of times I really forgot that there're only piano and trumpet. And this is the most tasteful of this album, how he can focus listeners' attention on his play with this wonderful rhythmic, but also so melodic (and bluesy…) approach.
Track List
01 - Dear Old Stockholm
02 - Everything Happens to Me
03 - Frammento del temperamento discutibile
04 - Fishermen, Strawberries and Devil Crab
05 - Frammento impavido
06 - Cheek to Cheek
07 - Si dolce e' il tormento
08 - Frammento di re fosco
09 - I Loves You Porgy
10 - Cheney's Dick
11 - Frammento del coraggioso
12 - Sonia Said
13 - Fellini
14 - Solar
15 - Frammento con lapilli
16 - Uarca lucente
17 - Frammento aviario
18 - E se domani

musicians
Piano [Fazioli Acoustic Piano], Electric Piano [Fender Rhodes Piano] – Uri Caine
Trumpet, Flugelhorn, Effects [Multieffects] – Paolo Fresu


Exact Audio Copy V0.99 prebeta 5 from 4. May 2009

EAC extraction logfile from 15. April 2010, 13:00

Paolo Fresu & Uri Caine / Things

Used drive : ATAPI iHAS122 8 Adapter: 0 ID: 0

Read mode : Secure
Utilize accurate stream : Yes
Defeat audio cache : Yes
Make use of C2 pointers : No

Read offset correction : 6
Overread into Lead-In and Lead-Out : No
Fill up missing offset samples with silence : Yes
Delete leading and trailing silent blocks : No
Null samples used in CRC calculations : Yes
Used interface : Native Win32 interface for Win NT & 2000
Gap handling : Appended to previous track

Used output format : User Defined Encoder
Selected bitrate : 128 kBit/s
Quality : High
Add ID3 tag : No
Command line compressor : C:\Program Files (x86)\Exact Audio Copy\Flac\flac.exe
Additional command line options : -V -8 -T "artist=%a" -T "title=%t" -T "album=%g" -T "date=%y" -T "tracknumber=%n" -T "genre=%m" %s


TOC of the extracted CD

Track | Start | Length | Start sector | End sector
––––––––––––––––––––––––––––-
1 | 0:00.00 | 5:21.55 | 0 | 24129
2 | 5:21.55 | 7:02.47 | 24130 | 55826
3 | 12:24.27 | 0:17.35 | 55827 | 57136
4 | 12:41.62 | 5:10.39 | 57137 | 80425
5 | 17:52.26 | 0:44.53 | 80426 | 83778
6 | 18:37.04 | 7:19.25 | 83779 | 116728
7 | 25:56.29 | 5:26.55 | 116729 | 141233
8 | 31:23.09 | 0:51.63 | 141234 | 145121
9 | 32:14.72 | 5:22.22 | 145122 | 169293
10 | 37:37.19 | 4:38.30 | 169294 | 190173
11 | 42:15.49 | 1:19.32 | 190174 | 196130
12 | 43:35.06 | 3:45.49 | 196131 | 213054
13 | 47:20.55 | 6:49.73 | 213055 | 243802
14 | 54:10.53 | 4:34.09 | 243803 | 264361
15 | 58:44.62 | 1:05.58 | 264362 | 269294
16 | 59:50.45 | 3:21.49 | 269295 | 284418
17 | 63:12.19 | 0:55.41 | 284419 | 288584
18 | 64:07.60 | 2:19.51 | 288585 | 299060


Track 1

Filename E:\RIP\Paolo Fresu & Uri Caine - (2006) Things [FLAC]\01 - Dear Old Stockholm.wav

Pre-gap length 0:00:02.00

Peak level 96.6 %
Track quality 99.9 %
Test CRC 609A34D4
Copy CRC 609A34D4
Accurately ripped (confidence 4) [8CDF7A57]
Copy OK

Track 2

Filename E:\RIP\Paolo Fresu & Uri Caine - (2006) Things [FLAC]\02 - Everything Happens to Me.wav

Pre-gap length 0:00:01.53

Peak level 96.6 %
Track quality 100.0 %
Test CRC 58A8BC73
Copy CRC 58A8BC73
Accurately ripped (confidence 4) [466D2002]
Copy OK

Track 3

Filename E:\RIP\Paolo Fresu & Uri Caine - (2006) Things [FLAC]\03 - Frammento del temperamento discutibile.wav

Peak level 86.0 %
Track quality 100.0 %
Test CRC 343398F8
Copy CRC 343398F8
Accurately ripped (confidence 4) [10AAA94D]
Copy OK

Track 4

Filename E:\RIP\Paolo Fresu & Uri Caine - (2006) Things [FLAC]\04 - Fishermen, Strawberries and Devil Crab.wav

Peak level 96.6 %
Track quality 100.0 %
Test CRC 87F169EC
Copy CRC 87F169EC
Accurately ripped (confidence 5) [72DBB822]
Copy OK

Track 5

Filename E:\RIP\Paolo Fresu & Uri Caine - (2006) Things [FLAC]\05 - Frammento impavido.wav

Peak level 80.1 %
Track quality 100.0 %
Test CRC 2E843082
Copy CRC 2E843082
Accurately ripped (confidence 4) [52635068]
Copy OK

Track 6

Filename E:\RIP\Paolo Fresu & Uri Caine - (2006) Things [FLAC]\06 - Cheek to Cheek.wav

Peak level 96.6 %
Track quality 99.9 %
Test CRC 629D939D
Copy CRC 629D939D
Accurately ripped (confidence 4) [C138A436]
Copy OK

Track 7

Filename E:\RIP\Paolo Fresu & Uri Caine - (2006) Things [FLAC]\07 - Si dolce è il tormento.wav

Pre-gap length 0:00:01.32

Peak level 96.6 %
Track quality 99.9 %
Test CRC A9549BC4
Copy CRC A9549BC4
Accurately ripped (confidence 4) [2592E636]
Copy OK

Track 8

Filename E:\RIP\Paolo Fresu & Uri Caine - (2006) Things [FLAC]\08 - Frammento di re fosco.wav

Peak level 92.9 %
Track quality 100.0 %
Test CRC 36FEB540
Copy CRC 36FEB540
Accurately ripped (confidence 4) [AFCF2ABE]
Copy OK

Track 9

Filename E:\RIP\Paolo Fresu & Uri Caine - (2006) Things [FLAC]\09 - I Loves You Porgy.wav

Peak level 96.6 %
Track quality 100.0 %
Test CRC 27168BD4
Copy CRC 27168BD4
Accurately ripped (confidence 4) [28E58DFF]
Copy OK

Track 10

Filename E:\RIP\Paolo Fresu & Uri Caine - (2006) Things [FLAC]\10 - Cheney's Dick.wav

Pre-gap length 0:00:01.32

Peak level 96.6 %
Track quality 100.0 %
Test CRC 8C25AD5F
Copy CRC 8C25AD5F
Accurately ripped (confidence 5) [7F6926D5]
Copy OK

Track 11

Filename E:\RIP\Paolo Fresu & Uri Caine - (2006) Things [FLAC]\11 - Frammento del coraggioso.wav

Peak level 93.2 %
Track quality 100.0 %
Test CRC 83083EA7
Copy CRC 83083EA7
Accurately ripped (confidence 4) [973CCB84]
Copy OK

Track 12

Filename E:\RIP\Paolo Fresu & Uri Caine - (2006) Things [FLAC]\12 - Sonia Said.wav

Peak level 96.6 %
Track quality 100.0 %
Test CRC DB92EF56
Copy CRC DB92EF56
Accurately ripped (confidence 4) [3A2E30EC]
Copy OK

Track 13

Filename E:\RIP\Paolo Fresu & Uri Caine - (2006) Things [FLAC]\13 - Fellini.wav

Pre-gap length 0:00:01.45

Peak level 96.6 %
Track quality 100.0 %
Test CRC 70AC4D05
Copy CRC 70AC4D05
Accurately ripped (confidence 4) [929FAD12]
Copy OK

Track 14

Filename E:\RIP\Paolo Fresu & Uri Caine - (2006) Things [FLAC]\14 - Solar.wav

Pre-gap length 0:00:01.37

Peak level 96.6 %
Track quality 100.0 %
Test CRC 2755F31B
Copy CRC 2755F31B
Accurately ripped (confidence 4) [82172A06]
Copy OK

Track 15

Filename E:\RIP\Paolo Fresu & Uri Caine - (2006) Things [FLAC]\15 - Frammento con lapilli.wav

Peak level 92.9 %
Track quality 100.0 %
Test CRC 47F638DB
Copy CRC 47F638DB
Accurately ripped (confidence 4) [3DEB615E]
Copy OK

Track 16

Filename E:\RIP\Paolo Fresu & Uri Caine - (2006) Things [FLAC]\16 - Uarca lucente.wav

Peak level 96.6 %
Track quality 100.0 %
Test CRC 2FBD7741
Copy CRC 2FBD7741
Accurately ripped (confidence 4) [09067475]
Copy OK

Track 17

Filename E:\RIP\Paolo Fresu & Uri Caine - (2006) Things [FLAC]\17 - Frammento aviario.wav

Peak level 96.6 %
Track quality 100.0 %
Test CRC DB0948F5
Copy CRC DB0948F5
Accurately ripped (confidence 4) [F90BB1D1]
Copy OK

Track 18

Filename E:\RIP\Paolo Fresu & Uri Caine - (2006) Things [FLAC]\18 - E se domani.wav

Peak level 96.6 %
Track quality 100.0 %
Test CRC 9F68EFEF
Copy CRC 9F68EFEF
Accurately ripped (confidence 4) [3BBCE612]
Copy OK


All tracks accurately ripped

No errors occurred

End of status report

Paolo Fresu & Uri Caine - Things (2006) {Blue Note}
Paolo Fresu & Uri Caine - Things (2006) {Blue Note}


Thanks to the original ripper