Tags
Language
Tags

Pat Metheny Group - Offramp (1982) [Re-Up]

Posted By: Designol
Pat Metheny Group - Offramp (1982) [Re-Up]

Pat Metheny Group - Offramp (1982)
EAC | FLAC | Image (Cue&Log) ~ 245 Mb | Mp3 (CBR320) ~ 118 Mb
Label: ECM | # ECM 1216, 817 138-2 | Time: 00:42:25 | Scans included
Contemporary Jazz, Crossover Jazz, Fusion

If 1980's As Falls Wichita, So Falls Wichita Falls was defined by Pat Metheny's charisma, its less accessible but certainly rewarding successor, Offramp, finds him leaning more toward the abstract. But as cerebral as Metheny gets on such atmospheric pieces as "Are You Going with Me?" and "Au Lait," his playing remains decidedly lyrical and melodic. Clearly influenced by Jim Hall, the thoughtful Metheny makes excellent use of space, choosing his notes wisely and reminding listeners that, while he has heavy-duty chops, he's not one to beat everybody over the head with them. Even when he picks up the tempo for the difficult and angular title song, he shuns empty musical acrobatics. Throughout the CD, Metheny enjoys a powerful rapport with keyboardist Lyle Mays, who also avoids exploiting his technique and opts for meaningful storytelling.

Review by Alex Henderson, Allmusic.com

Pat Metheny Group - Offramp (1982) [Re-Up]



Tracklist:

01. Barcarole (03:18)
02. Are You Going With Me? (08:51)
03. Au Lait (08:31)
04. Eighteen (05:09)
05. Offramp (05:58)
06. James (06:45)
07. The Bat, Pt. 2 (03:50)


Exact Audio Copy V1.1 from 23. June 2015

EAC extraction logfile from 30. December 2015, 12:49

Pat Metheny Group / Offramp (817138-2)

Used drive : HL-DT-STDVDRAM GE20NU11 Adapter: 1 ID: 0

Read mode : Secure
Utilize accurate stream : Yes
Defeat audio cache : Yes
Make use of C2 pointers : No

Read offset correction : 667
Overread into Lead-In and Lead-Out : No
Fill up missing offset samples with silence : Yes
Delete leading and trailing silent blocks : No
Null samples used in CRC calculations : Yes
Used interface : Native Win32 interface for Win NT & 2000

Used output format : User Defined Encoder
Selected bitrate : 896 kBit/s
Quality : High
Add ID3 tag : No
Command line compressor : C:\Program Files\EAC 3\Exact Audio Copy\Flac\flac.exe
Additional command line options : -V -8 %source%


TOC of the extracted CD

Track | Start | Length | Start sector | End sector
––––––––––––––––––––––––––––-
1 | 0:00.32 | 3:18.20 | 32 | 14901
2 | 3:18.52 | 8:51.28 | 14902 | 54754
3 | 12:10.05 | 8:31.25 | 54755 | 93104
4 | 20:41.30 | 5:09.42 | 93105 | 116321
5 | 25:50.72 | 5:58.63 | 116322 | 143234
6 | 31:49.60 | 6:45.72 | 143235 | 173681
7 | 38:35.57 | 3:50.18 | 173682 | 190949


Range status and errors

Selected range

Filename C:\OdW\Pat Metheny Group (1982) Offramp (817138-2)\Pat Metheny Group - Offramp (817138-2).wav

Peak level 89.0 %
Extraction speed 6.8 X
Range quality 100.0 %
Test CRC 72CFD7E2
Copy CRC 72CFD7E2
Copy OK

No errors occurred


AccurateRip summary

Track 1 accurately ripped (confidence 119) [6E1AEA0A] (AR v2)
Track 2 accurately ripped (confidence 119) [14E3C270] (AR v2)
Track 3 accurately ripped (confidence 119) [64550751] (AR v2)
Track 4 accurately ripped (confidence 118) [768FBB26] (AR v2)
Track 5 accurately ripped (confidence 117) [BD92AF72] (AR v2)
Track 6 accurately ripped (confidence 118) [D414D88D] (AR v2)
Track 7 accurately ripped (confidence 120) [200E6AF2] (AR v2)

All tracks accurately ripped

End of status report

–– CUETools DB Plugin V2.1.6

[CTDB TOCID: wP5e22CHNRvHRZZGEekQVGsireo-] found
Submit result: wP5e22CHNRvHRZZGEekQVGsireo- has been confirmed
Track | CTDB Status
1 | (75/77) Accurately ripped
2 | (75/77) Accurately ripped
3 | (74/77) Accurately ripped
4 | (47/77) Accurately ripped, or (27/77) differs in 281 samples @04:36:36,04:37:73,04:40:43,04:41:52,04:42:46,04:43:26-04:43:27,04:44:49-04:44:50,04:46:53,04:52:07-04:52:08
5 | (75/77) Accurately ripped
6 | (75/77) Accurately ripped
7 | (76/77) Accurately ripped


==== Log checksum CD8D8EC6A5E2AD94F5606A48A8639D7D8D2EF4E37E151C21A6F08E560D4F4F96 ====

foobar2000 1.2 / Dynamic Range Meter 1.1.1
log date: 2016-01-03 14:35:00

––––––––––––––––––––––––––––––––––––––––
Analyzed: Pat Metheny Group / Offramp (817138-2)
––––––––––––––––––––––––––––––––––––––––

DR Peak RMS Duration Track
––––––––––––––––––––––––––––––––––––––––
DR12 -1.39 dB -16.13 dB 3:18 01-Barcarole
DR12 -1.01 dB -17.28 dB 8:51 02-Are You Going With Me?
DR12 -5.19 dB -21.43 dB 8:31 03-Au Lait
DR13 -1.54 dB -18.33 dB 5:10 04-Eighteen
DR12 -1.98 dB -17.25 dB 5:59 05-Offramp
DR13 -1.16 dB -17.76 dB 6:46 06-James
DR12 -8.42 dB -24.88 dB 3:50 07-The Bat, Pt. 2
––––––––––––––––––––––––––––––––––––––––

Number of tracks: 7
Official DR value: DR12

Samplerate: 44100 Hz
Channels: 2
Bits per sample: 16
Bitrate: 740 kbps
Codec: FLAC
================================================================================

Pat Metheny Group - Offramp (1982) [Re-Up]

Pat Metheny Group - Offramp (1982) [Re-Up]

All thanks to original releaser - Olaf der Weisse

More interesting music in My Blog