Tags
Language
Tags

Pat Metheny - Trio 99 → 00 (2000)

Posted By: gribovar
Pat Metheny - Trio 99 → 00 (2000)

Pat Metheny - Trio 99 → 00 (2000)
EAC Rip | FLAC (image+.cue+log) - 383 MB | MP3 CBR 320 kbps (LAME 3.93) - 161 MB | Covers (8 MB) included
Genre: Contemporary Jazz | RAR 3% Rec. | Label: Warner Bros. Records (9 47632-2)

Mixing up his pitches just to keep his fans off balance as always, Metheny returns to the strict jazz-guitar trio format for the first time in a decade, in league with a couple of combative, unintimidated partners. At the age of 45, Metheny leaves no doubt that he has become a masterful jazz player, thoroughly at home with even the most convoluted bebop licks ("What Do You Want?") yet still as open as ever to ideas outside the narrow mainstream, as illustrated in the country-western-tinged phrasing on "The Sun in Montreal." Bassist Larry Grenadier propels his own voice prominently into the texture, even when walking the fours, and drummer Bill Stewart does not hesitate to go against the grain of Metheny's ideas. There is a slow, almost bossa nova-like take on "Giant Steps" that works unexpectedly well; it actually becomes a lyrical, gliding thing. Bye Bye Birdie's "Got a Lot of Livin' to Do" gets a rare contemporary cover, and why not? it's a good tune that holds up, even when fractured as creatively as it is here. There are also a few songs on acoustic guitar that sound like embryonic soundtrack material: "Just Like the Day," "We Had a Sister," and "Travels," the latter being Metheny's first studio recording of a tune that was recorded live 17 years before. Metheny's brigade of jazz buffs will savor this.
Tracklist:
01. (Go) Get It
02. Giant Steps
03. Just Like The Day
04. Soul Cowboy
05. The Sun In Montreal
06. Capricorn
07. We Had A Sister
08. What Do You Want?
09. A Lot Of Livin' To Do
10. Lone Jack
11. Travels

Total time: 01:05:22

Exact Audio Copy V0.99 prebeta 5 from 4. May 2009

EAC extraction logfile from 4. November 2010, 6:08

Pat Metheny / Trio 99->00

Used drive : HL-DT-STDVD-RAM GSA-H54N Adapter: 0 ID: 0

Read mode : Secure
Utilize accurate stream : Yes
Defeat audio cache : Yes
Make use of C2 pointers : No

Read offset correction : 102
Overread into Lead-In and Lead-Out : No
Fill up missing offset samples with silence : Yes
Delete leading and trailing silent blocks : No
Null samples used in CRC calculations : Yes
Used interface : Native Win32 interface for Win NT & 2000

Used output format : User Defined Encoder
Selected bitrate : 320 kBit/s
Quality : High
Add ID3 tag : No
Command line compressor : C:\Program Files\Exact Audio Copy\Flac\flac.exe
Additional command line options : -8 -V %s


TOC of the extracted CD

Track | Start | Length | Start sector | End sector
––––––––––––––––––––––––––––-
1 | 0:00.00 | 5:37.20 | 0 | 25294
2 | 5:37.20 | 7:53.72 | 25295 | 60841
3 | 13:31.17 | 4:43.28 | 60842 | 82094
4 | 18:14.45 | 8:28.67 | 82095 | 120261
5 | 26:43.37 | 4:35.58 | 120262 | 140944
6 | 31:19.20 | 6:19.55 | 140945 | 169424
7 | 37:39.00 | 5:30.42 | 169425 | 194216
8 | 43:09.42 | 5:24.20 | 194217 | 218536
9 | 48:33.62 | 5:29.20 | 218537 | 243231
10 | 54:03.07 | 5:30.48 | 243232 | 268029
11 | 59:33.55 | 5:48.22 | 268030 | 294151


Range status and errors

Selected range

Filename C:\EAC\Pat Metheny - Trio 99 -} 00.wav

Peak level 99.8 %
Range quality 99.9 %
Test CRC 86E1FB9E
Copy CRC 86E1FB9E
Copy OK

No errors occurred


AccurateRip summary

Track 1 accurately ripped (confidence 6) [93998EFA]
Track 2 accurately ripped (confidence 6) [58152B6E]
Track 3 accurately ripped (confidence 6) [742C6829]
Track 4 accurately ripped (confidence 6) [E295D51A]
Track 5 accurately ripped (confidence 6) [C3796624]
Track 6 accurately ripped (confidence 6) [5E99EFCB]
Track 7 accurately ripped (confidence 6) [8B2E496A]
Track 8 accurately ripped (confidence 6) [430EA223]
Track 9 accurately ripped (confidence 6) [24D3D162]
Track 10 accurately ripped (confidence 6) [0DB27CF6]
Track 11 accurately ripped (confidence 5) [0F9F0A19]

All tracks accurately ripped

End of status report

[CUETools log; Date: 21.03.2021 23:30:50; Version: 2.1.4]
[CTDB TOCID: 5vUkG1dzrrp1nxye3xaHGSkIL9Y-] found.
Track | CTDB Status
1 | (364/384) Accurately ripped
2 | (373/384) Accurately ripped
3 | (374/384) Accurately ripped
4 | (374/384) Accurately ripped
5 | (371/384) Accurately ripped
6 | (371/384) Accurately ripped
7 | (371/384) Accurately ripped
8 | (372/384) Accurately ripped
9 | (369/384) Accurately ripped
10 | (370/384) Accurately ripped
11 | (368/384) Accurately ripped
[AccurateRip ID: 001bb9c8-00ee6d17-9a0f520b] found.
Track [ CRC | V2 ] Status
01 [93998efa|cbeb35ab] (010+021/273) Accurately ripped
02 [58152b6e|45616c6c] (010+021/273) Accurately ripped
03 [742c6829|80bb5992] (010+021/272) Accurately ripped
04 [e295d51a|1486a0af] (010+021/271) Accurately ripped
05 [c3796624|df2c3573] (010+021/268) Accurately ripped
06 [5e99efcb|4971d74e] (010+021/270) Accurately ripped
07 [8b2e496a|4cf58141] (010+021/267) Accurately ripped
08 [430ea223|4ccdae71] (010+021/269) Accurately ripped
09 [24d3d162|e3afd758] (010+021/270) Accurately ripped
10 [0db27cf6|293653be] (010+020/270) Accurately ripped
11 [0f9f0a19|b9b54745] (009+019/267) Accurately ripped
Offsetted by -941:
01 [53b4c6c5] (004/273) Accurately ripped
02 [5bf72fd9] (004/273) Accurately ripped
03 [2580df06] (004/272) Accurately ripped
04 [dcdb1b99] (004/271) Accurately ripped
05 [9df2595e] (004/268) Accurately ripped
06 [8aee1898] (004/270) Accurately ripped
07 [be398fce] (004/267) Accurately ripped
08 [e3b48a95] (004/269) Accurately ripped
09 [d7a0c662] (004/270) Accurately ripped
10 [acdf6902] (004/270) Accurately ripped
11 [5bf09754] (004/267) Accurately ripped
Offsetted by -106:
01 [fe7ea558] (003/273) Accurately ripped
02 [56116e41] (003/273) Accurately ripped
03 [84cb4ab8] (003/272) Accurately ripped
04 [601a0c17] (003/271) Accurately ripped
05 [cbfe338f] (003/268) Accurately ripped
06 [b848cffd] (003/270) Accurately ripped
07 [8ff07e6b] (003/267) Accurately ripped
08 [c61954fd] (003/269) Accurately ripped
09 [b49f14be] (003/270) Accurately ripped
10 [127b839d] (003/270) Accurately ripped
11 [dd7101dc] (003/267) Accurately ripped
Offsetted by -10:
01 [d8d3ebfb] (081/273) Accurately ripped
02 [b623316b] (081/273) Accurately ripped
03 [0f7e59d1] (080/272) Accurately ripped
04 [a0c49b86] (080/271) Accurately ripped
05 [e2059e20] (079/268) Accurately ripped
06 [f34bb6fc] (079/270) Accurately ripped
07 [44adf879] (077/267) Accurately ripped
08 [0f4622c9] (078/269) Accurately ripped
09 [705f6eda] (078/270) Accurately ripped
10 [4b192b5f] (079/270) Accurately ripped
11 [6083fc54] (076/267) Accurately ripped
Offsetted by -28:
01 [234603a2] (000/273) No match
02 [310a64e7] (000/273) No match
03 [1fd52712] (000/272) No match
04 [d3a056ac] (000/271) No match
05 [592d0a4b] (000/268) No match
06 [4503e00a] (000/270) No match
07 [0e9d56c1] (000/267) No match (V2 was not tested)
08 [a1aa873c] (000/269) No match (V2 was not tested)
09 [b59b1cf7] (000/270) No match (V2 was not tested)
10 [6cb44cdf] (000/270) No match (V2 was not tested)
11 [5871ae1c] (000/267) No match (V2 was not tested)
Offsetted by -16:
01 [2659a99b] (000/273) No match (V2 was not tested)
02 [0c10a8ee] (000/273) No match (V2 was not tested)
03 [0fa47e9a] (000/272) No match
04 [ce8fa011] (000/271) No match
05 [2f08a9c9] (000/268) No match
06 [b8e397ab] (000/270) No match
07 [dd4e17e5] (000/267) No match
08 [fc129996] (000/269) No match
09 [1837f2ad] (000/270) No match
10 [d6fce137] (000/270) No match
11 [087fe243] (000/267) No match

Track Peak [ CRC32 ] [W/O NULL] [ LOG ]
– 99,8 [86E1FB9E] [6365F431] CRC32
01 99,8 [AEC02C0C] [86193EE8]
02 99,8 [1AE3A162] [B8CB6514]
03 99,8 [3556B892] [F1D76FA0]
04 99,8 [10D6FD45] [D5EEDA25]
05 99,8 [44D16C5D] [06508E93]
06 99,8 [AEFE8996] [4227371A]
07 74,5 [BB9C8B92] [C98B9D32]
08 99,8 [25DCBDDA] [B3EC7B49]
09 99,8 [91C22D46] [A209FD29]
10 99,8 [7FD64474] [85FE640E]
11 85,5 [2457575C] [087E826B]

Thanks to Darkman

See also:
Pat Metheny, B.B. King, Dave B...f Swing) (1984) [Reissue 1996]
Jim Hall & Pat Metheny - Jim Hall & Pat Metheny (1999)
Pat Metheny, Brad Mehldau - Metheny Mehldau Quartet (2007)
Pat Metheny - From This Place (2020)