Subcategories

Patricia Petibon, Josep Pons, Orquestra Nacional de España - Melancolía: Spanish Arias and Songs (2011)

Posted By: ArlegZ
Patricia Petibon, Josep Pons, Orquestra Nacional de España - Melancolía: Spanish Arias and Songs (2011)

Patricia Petibon, Josep Pons, Orquestra Nacional de España - Melancolía: Spanish Arias and Songs (2011)
EAC | FLAC | Image (Cue & Log) ~ 293 Mb | Total time: 57:24 | Scans included
Classical | Label: Deutsche Grammophone | # 477 9447 | Recorded: 2010

Patricia Petibon's album Melancolía: Spanish Arias and Songs is a result of the soprano's lifelong fascination with the music and culture of Spain, with a special interest in the ways Spanish and French influences have cross-pollinated. She has put together an exceptionally attractive selection of songs and arias from zarzuelas, most of them likely to be unfamiliar to general audiences. Petibon is known for her light, silvery coloratura, and her gift for inhabiting her roles, both dramatic and comic, with great spirit and penetrating insight. This repertoire doesn't especially exploit her coloratura abilities, but it gives free range to her expressive talents, from the feral intensity of the traditional Yoruba chant Ogundé uareré and the unrestrained yawps of Giménez's aria "La tarantula é un bicho múmalo" to the suave lyricism of the familiar Aria from Villa-Lobos' Bachianas Brasileiras No. 5. Even at interpretive extremes, Petibon maintains her characteristic tonal purity and clarity; the final note of the Villa-Lobos rings like a bell. The album concludes with a work newly written for Petibon by French composer Nicolas Bacri, a four-song cycle, Melodías de la melancolía. It's a terrific piece that at its best recalls Peter Lieberson's Neruda Songs, which is very high praise. Fans of Spanish music and anyone who loves Petibon's distinctive performances are likely to be delighted with this album. Josep Pons leads Orquesta Nacional de España in idiomatic, energetic accompaniment.
–Stephen Eddins

Performer:
Patricia Petibon, soprano
Daniel Manzanas, guitar
Joël Grare, percussion
Susan Manof, piano
Orquestra Nacional de España
Josep Pons, conductor

Track List:
01. Enrique Granados: Tonadillas, La maja dolorosa
Xavier Montsalvatge: Canciones negras
02. Cancion de cuna para dormir a un negrito
03. Canto negro
04. Joaquin Nin y Castellanos: Veinte cantos populares espanolas, El vito
05. Heitor Villa-Lobos: Bachianas brasileiras No.5 for Soprano and Cellos, Aria (Cantilena)
06. Joaquin Perez Turina: Poema en forma de canciones, Op.10, Cantares
07. Jeronimo Gimenez: La Tempranica, № 2 Tiempo de zapateado - La tarantula e un bicho
08. Rafael Calleja Gomez, Tomas Barrera Saavedra: Emigrantes, Adios Granada
09. Manuel de Falla: La vida breve, Vivan los que rien!
10. Federico Moreno Torroba: La marchenera, No. 5 Petenera
11. Enrique Granados: Tonadillas, El mirar de la maja
12. Jose Serrano Simeon: La cancion del olvido, No.2 Cancion de Marinela
13. Traditional, Francisco Ernani Braga: Oqunde - uarere (adapted by Wieland Reissmann)
Nicolas Bacri: Melodias de la Melancolia, Op.119b
14. A la mar
15. Silencio mi nino
16. Hay quien dice
17. Sólo


Exact Audio Copy V1.3 from 2. September 2016

Отчёт EAC об извлечении, выполненном 13. ноября 2019, 23:18

Orquesta Nacional de España, Josep Pons, Patricia Petibon / Melancolía: Spanish Arias and Songs

Дисковод: ASUS BW-16D1H-U Adapter: 1 ID: 0

Режим чтения : Достоверность
Использование точного потока : Да
Отключение кэша аудио : Да
Использование указателей C2 : Нет

Коррекция смещения при чтении : 6
Способность читать области Lead-in и Lead-out : Нет
Заполнение пропущенных сэмплов тишиной : Да
Удаление блоков с тишиной в начале и конце : Нет
При вычислениях CRC использовались нулевые сэмплы : Да
Интерфейс : Встроенный Win32-интерфейс для Win NT/2000

Выходной формат : Пользовательский кодировщик
Выбранный битрейт : 128 kBit/s
Качество : Высокий
Добавление ID3-тега : Нет
Утилита сжатия : C:\Program Files (x86)\Exact Audio Copy 1.3\Flac\flac.exe
Дополнительные параметры : -V -8 -T "Date=%year%" -T "Genre=%genre%" %source%


TOC извлечённого CD

Трек | Старт | Длительность | Начальный сектор | Конечный сектор
––––––––––––––––––––––––––––––––––-
1 | 0:00.00 | 2:35.74 | 0 | 11698
2 | 2:35.74 | 3:06.48 | 11699 | 25696
3 | 5:42.47 | 1:15.10 | 25697 | 31331
4 | 6:57.57 | 5:00.63 | 31332 | 53894
5 | 11:58.45 | 5:37.01 | 53895 | 79170
6 | 17:35.46 | 2:11.54 | 79171 | 89049
7 | 19:47.25 | 1:46.68 | 89050 | 97067
8 | 21:34.18 | 4:02.25 | 97068 | 115242
9 | 25:36.43 | 4:54.29 | 115243 | 137321
10 | 30:30.72 | 2:56.05 | 137322 | 150526
11 | 33:27.02 | 2:50.51 | 150527 | 163327
12 | 36:17.53 | 2:15.54 | 163328 | 173506
13 | 38:33.32 | 3:41.45 | 173507 | 190126
14 | 42:15.02 | 4:05.74 | 190127 | 208575
15 | 46:21.01 | 4:10.70 | 208576 | 227395
16 | 50:31.71 | 3:19.29 | 227396 | 242349
17 | 53:51.25 | 3:35.07 | 242350 | 258481


Характеристики диапазона извлечения и сообщения об ошибках

Выбранный диапазон

Имя файла D:\EAC\Patricia Petibon - Melancolía- Spanish Arias and Songs\Patricia Petibon - Melancolía- Spanish Arias and Songs.wav

Пиковый уровень 100.0 %
Скорость извлечения 7.4 X
Качество диапазона 100.0 %
CRC теста 963E4BEC
CRC копии 963E4BEC
Копирование… OK

Ошибок не произошло


AccurateRip: сводка

Трек 1 : извлечено точно (доверие 27) [0E825B15] (AR v2)
Трек 2 : извлечено точно (доверие 27) [3E2FCC8D] (AR v2)
Трек 3 : извлечено точно (доверие 27) [94FAADFB] (AR v2)
Трек 4 : извлечено точно (доверие 27) [C96CADB9] (AR v2)
Трек 5 : извлечено точно (доверие 27) [6442116D] (AR v2)
Трек 6 : извлечено точно (доверие 27) [946122D5] (AR v2)
Трек 7 : извлечено точно (доверие 27) [9D8BBA30] (AR v2)
Трек 8 : извлечено точно (доверие 27) [BF91B750] (AR v2)
Трек 9 : извлечено точно (доверие 27) [1A042EA8] (AR v2)
Трек 10 : извлечено точно (доверие 27) [CC258E1E] (AR v2)
Трек 11 : извлечено точно (доверие 27) [520AA54D] (AR v2)
Трек 12 : извлечено точно (доверие 27) [3D0F8EBB] (AR v2)
Трек 13 : извлечено точно (доверие 27) [AA325898] (AR v2)
Трек 14 : извлечено точно (доверие 27) [DA169CB0] (AR v2)
Трек 15 : извлечено точно (доверие 25) [AB7AFCAC] (AR v2)
Трек 16 : извлечено точно (доверие 26) [2F9C4291] (AR v2)
Трек 17 : извлечено точно (доверие 27) [80DD2774] (AR v2)

Все треки извлечены точно

Конец отчёта

–– CUETools DB Plugin V2.1.6

[CTDB TOCID: vP8OcBEkhj6HbEolfIowud1eOtA-] found
Submit result: vP8OcBEkhj6HbEolfIowud1eOtA- has been confirmed
Track | CTDB Status
1 | (23/23) Accurately ripped
2 | (23/23) Accurately ripped
3 | (23/23) Accurately ripped
4 | (23/23) Accurately ripped
5 | (23/23) Accurately ripped
6 | (23/23) Accurately ripped
7 | (23/23) Accurately ripped
8 | (23/23) Accurately ripped
9 | (23/23) Accurately ripped
10 | (23/23) Accurately ripped
11 | (23/23) Accurately ripped
12 | (23/23) Accurately ripped
13 | (23/23) Accurately ripped
14 | (23/23) Accurately ripped
15 | (20/23) Accurately ripped
16 | (22/23) Accurately ripped
17 | (23/23) Accurately ripped


==== Контрольная сумма отчёта 016DFFCC49D788ECF708C9F3D91D293B58A3CBE0FF678924A30115645C10AC67 ====

Patricia Petibon, Josep Pons, Orquestra Nacional de España - Melancolía: Spanish Arias and Songs (2011)

Thanks to the original releaser