Subcategories

Patricia Petibon, Andrea Marcon, La Cetra Barockorchester Basel - Nouveau Monde: Baroque Arias and Songs (2012)

Posted By: ArlegZ
Patricia Petibon, Andrea Marcon, La Cetra Barockorchester Basel - Nouveau Monde: Baroque Arias and Songs (2012)

Patricia Petibon, Andrea Marcon, La Cetra Barockorchester Basel - Nouveau Monde: Baroque Arias and Songs (2012)
EAC | FLAC | Image (Cue & Log) ~ 412 Mb | Total time: 67'53 | Scans included
Classical | Label: Deutsche Grammophone | # 479 0079 | Recorded: 2012

Admired for her remarkable creative imagination and exemplary musicianship, soprano Patricia Petibon, in her newest album for Deutsche Grammophon, offers a treasure-trove of fascinating Baroque curiosities guaranteed to enthral both the Baroque aficionado and the casual listener.
Nouveau Monde is conceived as a journey from the Old to the New World, a spell-binding collection of arias, songs and pieces from European composers (Charpentier, Händel, Rameau, Purcell) that testify to their composers’ fascination with the exoticism of recently-discovered lands, as well as South American folksongs which boast exceptional rhythmic energy and colour
Spectacularly accompanied by the La Cetra Baroque Orchestra under the excelling direction of Andrea Marcon – who also stands out as a Baroque organist and harpsichordist - Patricia enchants our senses with a mélange of 17th-century arias and folk songs from England, France, Spain, and Latin America
As a follow-up to her best-selling Rosso and Melancolía albums, Patricia Petibon’s 2012 release is guaranteed to be one of the most popular and sought-after Baroque releases of the year

Performer:
Patricia Petibon, soprano
La Cetra Vokalensemble
La Cetra Barockorchester Basel
Andrea Marcon, conductor

Track List:
José de Nebra (1702–1768)
01. Vendado es amor, no es ciego (Zarzuela) - El bajel que no recela
Henry le Bailly (d.1637)
02. Yo soy la locura
Anonymous
03. Codex Martínez Compañon - Cachua a voz y bajo Al Nacimento de Christo Nuestro Señor
José de Nebra
04. Vendado es amor, no es ciego (Zarzuela) - En amor, pastorcillos, no hay quien distinga
Henry Purcell (1659–1695)
05. Dido and Aeneas / Act 3 - "Thy hand, Belinda…When I am laid in earth"
Jean-Philippe Rameau (1683–1764)
06. Les indes galantes / Nouvelle Entrée: Les Sauvages Scène 6 - Danse du Grand Calumet de la Paix (Rondeau) - Forêts paisibles
George Frideric Handel (1685-1759)
07. Cantata spagnola HWV 140 - No se emendará jamás
Anonymous
08. Codex Martínez Compañon - Tonada la Lata a voz y bajo para bailar cantando
09. Mon amy s'en est allé
10. Codex Martinez Companon - Tonada la Lata el Congo a voz y bajo para baylar cantando
Marc-Antoine Charpentier (1643–1704)
11. Chaconne for Soprano and Continuo - Sans frayer dans ce bois
12. Medée, Acte III, Scène 3 - Quel prix de mon amour
13. Medée, Acte III, Scène 5 / Scène 6 - Prélude - Noire filles du stix - L'Enfer obéit à ta voix
14. Medée, Acte III, Scène 7 - Dieu du Cocyte et des Royaumes sombres
Anonymous
15. Greensleeves to a ground
16. J'ai vu le loup, le renard et la belette
Jean-Philippe Rameau
17. Les indes galantes / Première Entrée: Le Turc généreux Scène 2 - La nuit couvre les cieux - Que nous sert d'échapper à la fureur des mers
Henry Purcell
18. King Arthur, or The British Worthy (1691) / Act 5 - Fairest Isle (Venus)


Exact Audio Copy V1.3 from 2. September 2016

Отчёт EAC об извлечении, выполненном 13. ноября 2019, 23:46

Patricia Petibon, La Cetra, Andrea Marcon / Nouveau monde: Baroque Arias and Songs

Дисковод: ASUS BW-16D1H-U Adapter: 1 ID: 0

Режим чтения : Достоверность
Использование точного потока : Да
Отключение кэша аудио : Да
Использование указателей C2 : Нет

Коррекция смещения при чтении : 6
Способность читать области Lead-in и Lead-out : Нет
Заполнение пропущенных сэмплов тишиной : Да
Удаление блоков с тишиной в начале и конце : Нет
При вычислениях CRC использовались нулевые сэмплы : Да
Интерфейс : Встроенный Win32-интерфейс для Win NT/2000

Выходной формат : Пользовательский кодировщик
Выбранный битрейт : 128 kBit/s
Качество : Высокий
Добавление ID3-тега : Нет
Утилита сжатия : C:\Program Files (x86)\Exact Audio Copy 1.3\Flac\flac.exe
Дополнительные параметры : -V -8 -T "Date=%year%" -T "Genre=%genre%" %source%


TOC извлечённого CD

Трек | Старт | Длительность | Начальный сектор | Конечный сектор
––––––––––––––––––––––––––––––––––-
1 | 0:00.00 | 5:30.38 | 0 | 24787
2 | 5:30.38 | 2:40.17 | 24788 | 36804
3 | 8:10.55 | 3:13.39 | 36805 | 51318
4 | 11:24.19 | 1:47.74 | 51319 | 59417
5 | 13:12.18 | 5:21.43 | 59418 | 83535
6 | 18:33.61 | 4:12.70 | 83536 | 102505
7 | 22:46.56 | 3:36.33 | 102506 | 118738
8 | 26:23.14 | 2:10.05 | 118739 | 128493
9 | 28:33.19 | 3:35.35 | 128494 | 144653
10 | 32:08.54 | 3:20.00 | 144654 | 159653
11 | 35:28.54 | 2:29.26 | 159654 | 170854
12 | 37:58.05 | 5:35.31 | 170855 | 196010
13 | 43:33.36 | 3:57.32 | 196011 | 213817
14 | 47:30.68 | 4:49.01 | 213818 | 235493
15 | 52:19.69 | 4:08.43 | 235494 | 254136
16 | 56:28.37 | 2:54.14 | 254137 | 267200
17 | 59:22.51 | 4:44.66 | 267201 | 288566
18 | 64:07.42 | 3:37.64 | 288567 | 304905


Характеристики диапазона извлечения и сообщения об ошибках

Выбранный диапазон

Имя файла D:\EAC\Patricia Petibon, La Cetra, Andrea Marcon - Nouveau monde - Baroque Arias and Songs\Patricia Petibon, La Cetra, Andrea Marcon - Nouveau monde - Baroque Arias and Songs.wav

Пиковый уровень 100.0 %
Скорость извлечения 8.2 X
Качество диапазона 100.0 %
CRC теста E769E836
CRC копии E769E836
Копирование… OK

Ошибок не произошло


AccurateRip: сводка

Трек 1 : извлечено точно (доверие 34) [B6934758] (AR v2)
Трек 2 : извлечено точно (доверие 34) [90484A48] (AR v2)
Трек 3 : извлечено точно (доверие 34) [E7045BEA] (AR v2)
Трек 4 : извлечено точно (доверие 34) [99208737] (AR v2)
Трек 5 : извлечено точно (доверие 34) [28AEE26C] (AR v2)
Трек 6 : извлечено точно (доверие 34) [626D2201] (AR v2)
Трек 7 : извлечено точно (доверие 34) [BC17848D] (AR v2)
Трек 8 : извлечено точно (доверие 34) [93C94C48] (AR v2)
Трек 9 : извлечено точно (доверие 34) [6C128904] (AR v2)
Трек 10 : извлечено точно (доверие 34) [345D9412] (AR v2)
Трек 11 : извлечено точно (доверие 34) [6E3EDA6B] (AR v2)
Трек 12 : извлечено точно (доверие 34) [96C5A3E9] (AR v2)
Трек 13 : извлечено точно (доверие 34) [6B47CEF0] (AR v2)
Трек 14 : извлечено точно (доверие 34) [BFD23F52] (AR v2)
Трек 15 : извлечено точно (доверие 34) [5D9DA4CB] (AR v2)
Трек 16 : извлечено точно (доверие 34) [19D05385] (AR v2)
Трек 17 : извлечено точно (доверие 34) [8E2D1AD7] (AR v2)
Трек 18 : извлечено точно (доверие 34) [64D31958] (AR v2)

Все треки извлечены точно

Конец отчёта

–– CUETools DB Plugin V2.1.6

[CTDB TOCID: G63B_y8m0c2dTni03Ox5kRlF4nc-] found
Submit result: G63B_y8m0c2dTni03Ox5kRlF4nc- has been confirmed
Track | CTDB Status
1 | (56/56) Accurately ripped
2 | (56/56) Accurately ripped
3 | (55/56) Accurately ripped
4 | (56/56) Accurately ripped
5 | (56/56) Accurately ripped
6 | (55/56) Accurately ripped
7 | (56/56) Accurately ripped
8 | (56/56) Accurately ripped
9 | (56/56) Accurately ripped
10 | (56/56) Accurately ripped
11 | (56/56) Accurately ripped
12 | (56/56) Accurately ripped
13 | (55/56) Accurately ripped
14 | (55/56) Accurately ripped
15 | (55/56) Accurately ripped
16 | (56/56) Accurately ripped
17 | (55/56) Accurately ripped
18 | (55/56) Accurately ripped


==== Контрольная сумма отчёта 4D5E65E1E7863C436F415E88D21EEE3B852C2587133B702413900875334DDFC0 ====

Patricia Petibon, Andrea Marcon, La Cetra Barockorchester Basel - Nouveau Monde: Baroque Arias and Songs (2012)

Thanks to the original releaser