Tags
Language
Tags

Paul Anka - Songs For Young Lovers & My Heart Sings (2013)

Posted By: v3122
Paul Anka - Songs For Young Lovers & My Heart Sings (2013)

Paul Anka - Songs For Young Lovers & My Heart Sings (2013)
EAC | Flac(Image) + Cue + Log & MP3 CBR 320Kbps
Jackpot Record, 48739 | ~ 410 or 186 Mb | Artwork(jpg) -> 34 Mb
Pop

Paul Albert Anka, OC (/ˈæŋkə/, Arabic: بول عنقا; born July 30, 1941) is a Canadian-American singer, songwriter and actor. Anka became famous with hit songs like "Diana", "Lonely Boy", "Put Your Head on My Shoulder", and "(You're) Having My Baby". He wrote such well-known music as the theme for The Tonight Show Starring Johnny Carson and one of Tom Jones's biggest hits, "She's a Lady". He also wrote the English lyrics to Claude François and Jacques Revaux's music for Frank Sinatra's signature song, "My Way", which has been covered by many, including Elvis Presley.

In 1983, he co-wrote the song "I Never Heard" with Michael Jackson. It was retitled and released in 2009 under the name "This Is It".[1] An additional song that Jackson co-wrote with Anka from the 1983 session, "Love Never Felt So Good", was released in 2014 on Jackson's posthumous album Xscape. The song was also released by Johnny Mathis in 1984…

~ wiki
Paul Anka - Songs For Young Lovers & My Heart Sings (2013):

Paul Anka - Songs For Young Lovers & My Heart Sings (2013)

Tracklist:

Album - Swings For Young Lovers - 1960

01. Hello, Young Lovers (02:36)
02. You Made Me Love You (02:36)
03. Secret Love (02:23)
04. I Can't Give You Anything But Love (02:34)
05. Love Is A Many-Splendored Thing (02:44)
06. Love Letters In The Sand (02:26)
07. P.S. I Love You (02:45)
08. Somebody Loves Me (02:26)
09. Love Is Just Around The Corner (02:12)
10. I'm In The Mood For Love (02:41)
11. I've Got My Love To Keep Me Warm (02:45)
12. Train Of Love (02:29)

Album - My Heart Sings - 1959

13. My Heart Sings (03:04)
14. Under Paris Skies (01:53)
15. Autumn Leaves (03:35)
16. Pigalle (01:50)
17. Comme Ci, Comme Ca (03:18)
18. C'est Si Bon (03:15)
19. Melodie D'Amour (02:43)
20. I Miss You So (02:24)
21. I Love Paris (02:06)
22. If You Love Me (Really Love Me) (02:11)
23. Les Filles De Paris (03:56)
24. So It's Goodbye (03:08)

Bonus Tracks - 1958

25. Down By The Riverside (02:30)
26. Walkin' My Baby Back Home (01:57)
27. Red Sails In The Sunset (02:41)
28. I've Heard That Song Before (02:32)
29. Sing Sing Sing (With A Swing) (02:11)
30. Diana (02:27)

Exact Audio Copy V1.3 from 2. September 2016

Отчёт EAC об извлечении, выполненном 15. июля 2019, 14:45

Paul Anka / Songs For Young Lovers - My Heart Sings

Дисковод: PIONEER DVD-RW DVR-109 Adapter: 3 ID: 0

Режим чтения : Достоверность
Использование точного потока : Да
Отключение кэша аудио : Да
Использование указателей C2 : Нет

Коррекция смещения при чтении : 48
Способность читать области Lead-in и Lead-out : Нет
Заполнение пропущенных сэмплов тишиной : Да
Удаление блоков с тишиной в начале и конце : Нет
При вычислениях CRC использовались нулевые сэмплы : Да
Интерфейс : Установленный внешний ASPI-интерфейс

Выходной формат : Пользовательский кодировщик
Выбранный битрейт : 128 kBit/s
Качество : Высокий
Добавление ID3-тега : Нет
Утилита сжатия : C:\Program Files\Exact Audio Copy\FLAC\FLAC.EXE
Дополнительные параметры : -V -8 -T "Genre=%genre%" -T "Artist=%artist%" -T "Title=%title%" -T "Album=%albumtitle%" -T "Date=%year%" -T "Tracknumber=%tracknr%" -T "Comment=%comment%" %source%


TOC извлечённого CD

Трек | Старт | Длительность | Начальный сектор | Конечный сектор
––––––––––––––––––––––––––––––––––-
1 | 0:00.00 | 2:36.72 | 0 | 11771
2 | 2:36.72 | 2:36.64 | 11772 | 23535
3 | 5:13.61 | 2:23.56 | 23536 | 34316
4 | 7:37.42 | 2:34.61 | 34317 | 45927
5 | 10:12.28 | 2:44.44 | 45928 | 58271
6 | 12:56.72 | 2:26.47 | 58272 | 69268
7 | 15:23.44 | 2:45.54 | 69269 | 81697
8 | 18:09.23 | 2:26.26 | 81698 | 92673
9 | 20:35.49 | 2:12.28 | 92674 | 102601
10 | 22:48.02 | 2:41.47 | 102602 | 114723
11 | 25:29.49 | 2:45.15 | 114724 | 127113
12 | 28:14.64 | 2:29.66 | 127114 | 138354
13 | 30:44.55 | 3:04.10 | 138355 | 152164
14 | 33:48.65 | 1:53.66 | 152165 | 160705
15 | 35:42.56 | 3:35.63 | 160706 | 176893
16 | 39:18.44 | 1:50.39 | 176894 | 185182
17 | 41:09.08 | 3:18.26 | 185183 | 200058
18 | 44:27.34 | 3:15.42 | 200059 | 214725
19 | 47:43.01 | 2:43.61 | 214726 | 227011
20 | 50:26.62 | 2:24.45 | 227012 | 237856
21 | 52:51.32 | 2:06.36 | 237857 | 247342
22 | 54:57.68 | 2:11.64 | 247343 | 257231
23 | 57:09.57 | 3:56.29 | 257232 | 274960
24 | 61:06.11 | 3:08.37 | 274961 | 289097
25 | 64:14.48 | 2:30.55 | 289098 | 300402
26 | 66:45.28 | 1:57.08 | 300403 | 309185
27 | 68:42.36 | 2:41.46 | 309186 | 321306
28 | 71:24.07 | 2:32.48 | 321307 | 332754
29 | 73:56.55 | 2:11.17 | 332755 | 342596
30 | 76:07.72 | 2:27.20 | 342597 | 353641


Характеристики диапазона извлечения и сообщения об ошибках

Выбранный диапазон

Имя файла I:\MOI_RAZDACI\Paul Anka – Songs For Young Lovers - My Heart Sings - 2013\Paul Anka – Songs For Young Lovers - My Heart Sings (2013)\Paul Anka - Songs For Young Lovers - My Heart Sings.wav

Пиковый уровень 94.3 %
Скорость извлечения 7.8 X
Качество диапазона 100.0 %
CRC теста 55A2824C
CRC копии 55A2824C
Копирование… OK

Ошибок не произошло


AccurateRip: сводка

Трек 1 отсутствует в базе данных
Трек 2 отсутствует в базе данных
Трек 3 отсутствует в базе данных
Трек 4 отсутствует в базе данных
Трек 5 отсутствует в базе данных
Трек 6 отсутствует в базе данных
Трек 7 отсутствует в базе данных
Трек 8 отсутствует в базе данных
Трек 9 отсутствует в базе данных
Трек 10 отсутствует в базе данных
Трек 11 отсутствует в базе данных
Трек 12 отсутствует в базе данных
Трек 13 отсутствует в базе данных
Трек 14 отсутствует в базе данных
Трек 15 отсутствует в базе данных
Трек 16 отсутствует в базе данных
Трек 17 отсутствует в базе данных
Трек 18 отсутствует в базе данных
Трек 19 отсутствует в базе данных
Трек 20 отсутствует в базе данных
Трек 21 отсутствует в базе данных
Трек 22 отсутствует в базе данных
Трек 23 отсутствует в базе данных
Трек 24 отсутствует в базе данных
Трек 25 отсутствует в базе данных
Трек 26 отсутствует в базе данных
Трек 27 отсутствует в базе данных
Трек 28 отсутствует в базе данных
Трек 29 отсутствует в базе данных
Трек 30 отсутствует в базе данных

Ни одного трека нет в базе AccurateRip

Конец отчёта

–– CUETools DB Plugin V2.1.6

[CTDB TOCID: 8JUnWbAXnEm5tgzSwBY0MD3dxDE-] found
Submit result: already submitted
Track | CTDB Status
1 | (3/3) Accurately ripped
2 | (3/3) Accurately ripped
3 | (3/3) Accurately ripped
4 | (3/3) Accurately ripped
5 | (3/3) Accurately ripped
6 | (3/3) Accurately ripped
7 | (3/3) Accurately ripped
8 | (3/3) Accurately ripped
9 | (3/3) Accurately ripped
10 | (3/3) Accurately ripped
11 | (3/3) Accurately ripped
12 | (3/3) Accurately ripped
13 | (3/3) Accurately ripped
14 | (3/3) Accurately ripped
15 | (3/3) Accurately ripped
16 | (3/3) Accurately ripped
17 | (3/3) Accurately ripped
18 | (3/3) Accurately ripped
19 | (3/3) Accurately ripped
20 | (3/3) Accurately ripped
21 | (3/3) Accurately ripped
22 | (3/3) Accurately ripped
23 | (3/3) Accurately ripped
24 | (3/3) Accurately ripped
25 | (3/3) Accurately ripped
26 | (3/3) Accurately ripped
27 | (3/3) Accurately ripped
28 | (3/3) Accurately ripped
29 | (3/3) Accurately ripped
30 | (3/3) Accurately ripped


==== Контрольная сумма отчёта D5154B6DA083AB0FAF73BF292F3AFF86B355BAAF9BDB517390DAA6CE9518992A ====


[CUETools log; Date: 16.07.2019 10:57:33; Version: 2.1.4]
[AccurateRip ID: 0053ab7b-06fec8a0-c7126b1e] disk not present in database.

Track Peak [ CRC32 ] [W/O NULL] [ LOG ]
– 94,3 [55A2824C] [7A8FC5DD] CRC32
01 94,2 [B93A171B] [1EF72C7B]
02 94,2 [BA8C4C6F] [C0251CE3]
03 94,2 [AF3291BD] [8A851368]
04 94,3 [653523EF] [FEE8A554]
05 94,2 [D22062A7] [09566B1B]
06 94,3 [3464D49D] [9D8CAB7C]
07 94,2 [1034C31B] [3A039996]
08 94,3 [2FB6061C] [E75B9F00]
09 94,3 [68445A35] [8B942244]
10 94,3 [6E4B8F9A] [8A4442C9]
11 94,2 [2C937120] [110DF0F3]
12 94,3 [49C7F349] [E0B8E9A6]
13 94,2 [43160C3C] [7E37A822]
14 94,2 [183C3EB7] [849D2643]
15 84,0 [C6C57731] [6C96A225]
16 94,3 [02C74F46] [3C3A008E]
17 84,0 [B458AF55] [160A5288]
18 89,0 [FD81B4A6] [9204D179]
19 94,2 [9910E4DB] [EA8DD3EC]
20 94,2 [C3ECC416] [7525B5F6]
21 89,0 [8E08D36D] [3364ECED]
22 94,2 [84216268] [F687FE86]
23 89,0 [B303C2D0] [DA4E79C8]
24 94,2 [4738069D] [5866217A]
25 94,2 [A6489C4D] [9A9AAC04]
26 84,0 [703355B9] [374BD002]
27 94,2 [74C2C9A6] [E1DCD51A]
28 89,0 [BFA3D6AF] [82C82876]
29 94,2 [65D4BF3A] [81D60253]
30 89,0 [F29E5F2C] [3E960E4F]


Paul Anka - Songs For Young Lovers & My Heart Sings (2013)

All thanks go to the original releaser

Paul Anka in my Blog

Download Paul Anka - Songs For Young Lovers & My Heart Sings (2013):