Subcategories

Paul Smoker Trio - Come Rain Or Come Shine (1989)

Posted By: v3122
Paul Smoker Trio - Come Rain Or Come Shine (1989)

Paul Smoker Trio - Come Rain Or Come Shine (1989)
EAC | Flac(Image) + Cue + Log & MP3 CBR 320Kbps
Sound Aspects, SAS CD 024 | ~ 240 or 110 Mb | Artwork(jpg) -> 3.41 Mb
Modern Creative, Free Jazz

~ Recorded 18-19 Aug, 1986 in Cedar Falls, Iowa ~

Paul Smoker Trio - Come Rain Or Come Shine (1989):

Paul Smoker Trio - Come Rain Or Come Shine (1989)

Tracklist:

1 The Call
2 Old Time Southside Street Dance
3 Chorale and Descendance
4 Come Rain or Come Shine

Paul Smoker trumpet
Ron Rohovit bass
Phil Haynes drums


Exact Audio Copy V1.0 beta 3 from 29. August 2011

EAC extraction logfile from 8. April 2012, 22:01

Paul Smoker Trio / Come Rain Or Come Shine

Used drive : SlimtypeDVD A DS8A5SH Adapter: 0 ID: 1

Read mode : Secure
Utilize accurate stream : Yes
Defeat audio cache : Yes
Make use of C2 pointers : No

Read offset correction : 6
Overread into Lead-In and Lead-Out : No
Fill up missing offset samples with silence : Yes
Delete leading and trailing silent blocks : No
Null samples used in CRC calculations : Yes
Used interface : Native Win32 interface for Win NT & 2000
Gap handling : Appended to previous track

Used output format : User Defined Encoder
Selected bitrate : 128 kBit/s
Quality : High
Add ID3 tag : No
Command line compressor : C:\Program Files (x86)\Exact Audio Copy\Flac\flac.exe
Additional command line options : -V -8 -T "Genre=%genre%" -T "Artist=%artist%" -T "Title=%title%" -T "Album=%albumtitle%" -T "Date=%year%" -T "Tracknumber=%tracknr%" -T "Comment=%comment%" %source%


TOC of the extracted CD

Track | Start | Length | Start sector | End sector
––––––––––––––––––––––––––––-
1 | 0:00.00 | 18:30.00 | 0 | 83249
2 | 18:30.00 | 3:42.25 | 83250 | 99924
3 | 22:12.25 | 11:04.00 | 99925 | 149724
4 | 33:16.25 | 13:13.60 | 149725 | 209259


Track 1

Filename D:\Musak 2\Paul Smoker\Come Rain Or Come Shine (1989)\01. The Call.wav

Pre-gap length 0:00:02.00

Peak level 95.5 %
Extraction speed 1.4 X
Track quality 100.0 %
Test CRC EAECDBB0
Copy CRC EAECDBB0
Copy OK

Track 2

Filename D:\Musak 2\Paul Smoker\Come Rain Or Come Shine (1989)\02. Old Time Southside Street Dance.wav

Pre-gap length 0:00:02.48

Peak level 98.6 %
Extraction speed 1.5 X
Track quality 100.0 %
Test CRC 6A6D220A
Copy CRC 6A6D220A
Copy OK

Track 3

Filename D:\Musak 2\Paul Smoker\Come Rain Or Come Shine (1989)\03. Chorale and Descendance.wav

Pre-gap length 0:00:02.70

Peak level 95.6 %
Extraction speed 1.7 X
Track quality 99.9 %
Test CRC 615F63F3
Copy CRC 615F63F3
Copy OK

Track 4

Filename D:\Musak 2\Paul Smoker\Come Rain Or Come Shine (1989)\04. Come Rain or Come Shine.wav

Pre-gap length 0:00:02.63

Peak level 100.0 %
Extraction speed 2.0 X
Track quality 99.9 %
Test CRC 30EBD273
Copy CRC 30EBD273
Copy OK

No errors occurred

End of status report

==== Log checksum 51150DCADD8AA31CDE6672872B5C0E8AF19C313091F9FDBA6647D14D23173153 ====


[CUETools log; Date: 30.01.2020 2:06:27; Version: 2.1.4]
[AccurateRip ID: 000845d0-002037f4-2d0ae604] found.
Track [ CRC | V2 ] Status
01 [3987600b|7befe275] (0+2/2) Accurately ripped
02 [349f0fa4|b037329b] (0+2/2) Accurately ripped
03 [b9329aa2|913d5172] (0+2/2) Accurately ripped
04 [c295f066|ccb5e7fd] (0+2/2) Accurately ripped

Track Peak [ CRC32 ] [W/O NULL] [ LOG ]
– 100,0 [4DDB1BE2] [27E4CA13]
01 95,5 [EAECDBB0] [184A319B] CRC32
02 98,6 [6A6D220A] [7DFB4041] CRC32
03 95,6 [615F63F3] [38D60F4B] CRC32
04 100,0 [30EBD273] [E580C535] CRC32


Paul Smoker Trio - Come Rain Or Come Shine (1989)

All thanks go to desordenado

Paul Smoker in my Blog

Download Paul Smoker Trio - Come Rain Or Come Shine (1989):