Tags
Language
Tags

Stéphane Denève, Liceu Grand Theater Orchestra - Paul Dukas: Ariane et Barbe-bleue (2013) [Blu-Ray]

Posted By: Vilboa
Stéphane Denève, Liceu Grand Theater Orchestra - Paul Dukas: Ariane et Barbe-bleue (2013) [Blu-Ray]

Stéphane Denève, Liceu Grand Theater Orchestra - Paul Dukas: Ariane et Barbe-bleue (2013) [Blu-Ray]
BluRay | BDMV | MPEG-4 AVC Video / 17995 kbps / 1080i / 29,970 fps | 121 min | 22,4 Gb
Audio1: Français / LPCM Audio / 2.0 / 24-bit | Audio2: DTS-HD Master Audio / 5.1 / 48 kHz / 4120 kbps / 24-bit
––––––
BluRay-rip | AVC | MKV 1920x1080 / 6215 kbps / 29,97 fps | 121 min | 6,53 Gb
Audio: Français / DTS / 6ch / 48.0 KHz / 24 bits
Classical | Opus Arte | Sub: English, French, German, Italian, Catalan, Spanish, Japanese, Korean

Dukas’ opera Ariane et Barbe-bleue, based on Maeterlinck’s symbolist version of the classic tale, sees free spirit Ariane become the sixth wife of the infamous Barbe-bleue, who gives his new bride seven keys to seven doors, but prohibits the use of the last. Ariane discovers an array of glittering jewels behind the first six doors, but a terrifying reality awaits her as she unlocks the seventh. José van Dam is cast as the villainous Barbe-bleue, while taking on the immensely demanding role of Ariane - who does not leave the stage throughout the entire opera - is American soprano Jeanne-Michèle Charbonnet.

Cast:
Barbe-Bleue – José van Dam
Ariane – Jeanne-Michèle Charbonnet
Nurse – Patricia Bardon
Sélysette – Gemma Coma-Alabert
Ygraine – Beatriz Jiménez
Mélisande – Elena Copons
Bellangère – Salomé Haller
Alladine – Alba Valldaura
Liceu Grand Theater Chorus and Orchestra
Conductor – Stéphane Denève


Disc Title: OPUS ARTE Ariane et Barbe-bleue
Disc Size: 24 137 117 161 bytes
Protection: AACS
Playlist: 00002.MPLS
Size: 23 662 927 872 bytes
Length: 2:01:27.513
Total Bitrate: 25.98 Mbps
Video: MPEG-4 AVC Video / 17995 kbps / 1080i / 29.970 fps / 16:9 / High Profile 4.1
Audio: French / LPCM Audio / 2.0 / 48 kHz / 2304 kbps / 24-bit
Audio: French / DTS-HD Master Audio / 5.1 / 48 kHz / 4120 kbps / 24-bit (DTS Core: 5.1 / 48 kHz / 1509 kbps / 24-bit)
Subtitle: English / 13.773 kbps
Subtitle: French / 14.572 kbps
Subtitle: German / 15.136 kbps
Subtitle: Italian / 13.486 kbps
Subtitle: Catalan / 13.148 kbps
Subtitle: Spanish / 13.999 kbps
Subtitle: Japanese / 14.847 kbps
Subtitle: Korean / 14.474 kbps


General
Unique ID : 252532392477683470104219273332343670905 (0xBDFBF83BA423CF9CB22408E4A86F8879)
Complete name : C:\Ariane et Barbe-bleue.mkv
Format : Matroska
Format version : Version 2
File size : 6.54 GiB
Duration : 2h 1mn
Overall bit rate : 7 705 Kbps
Movie name : Ariane et Barbe-bleue
Encoded date : UTC 2020-11-24 11:47:34
Writing application : DVDFab 9.1.6.8
Writing library : libebml v0.7.8 + libmatroska v0.8.1

Video
ID : 1
Format : AVC
Format/Info : Advanced Video Codec
Format profile : High@L4.1
Format settings, CABAC : Yes
Format settings, ReFrames : 2 frames
Codec ID : V_MPEG4/ISO/AVC
Duration : 2h 1mn
Bit rate : 6 215 Kbps
Width : 1 920 pixels
Height : 1 080 pixels
Display aspect ratio : 16:9
Frame rate mode : Constant
Frame rate : 29.970 fps
Color space : YUV
Chroma subsampling : 4:2:0
Bit depth : 8 bits
Scan type : Progressive
Bits/(Pixel*Frame) : 0.100
Stream size : 5.13 GiB (78%)
Writing library : x264 core 142
Encoding settings : cabac=1 / ref=1 / deblock=1:-1:-1 / analyse=0x3:0 / me=hex / subme=5 / psy=0 / mixed_ref=0 / me_range=16 / chroma_me=1 / trellis=0 / 8x8dct=1 / cqm=0 / deadzone=21,11 / fast_pskip=1 / chroma_qp_offset=0 / threads=8 / lookahead_threads=2 / sliced_threads=0 / nr=0 / decimate=1 / interlaced=0 / bluray_compat=0 / constrained_intra=0 / bframes=2 / b_pyramid=0 / b_adapt=1 / b_bias=0 / direct=1 / weightb=1 / open_gop=0 / weightp=0 / keyint=24 / keyint_min=13 / scenecut=40 / intra_refresh=0 / rc=abr / mbtree=0 / bitrate=6215 / ratetol=1.0 / qcomp=0.60 / qpmin=0 / qpmax=69 / qpstep=4 / ip_ratio=1.40 / pb_ratio=1.30 / aq=1:1.00
Default : Yes
Forced : No
Color primaries : BT.709
Transfer characteristics : BT.709
Matrix coefficients : BT.709
Color range : Limited

Audio
ID : 2
Format : DTS
Format/Info : Digital Theater Systems
Mode : 16
Format settings, Endianness : Big
Codec ID : A_DTS
Duration : 2h 1mn
Bit rate mode : Constant
Bit rate : 1 509 Kbps
Channel(s) : 6 channels
Channel positions : Front: L C R, Side: L R, LFE
Sampling rate : 48.0 KHz
Bit depth : 24 bits
Compression mode : Lossy
Stream size : 1.28 GiB (20%)
Language : French
Default : Yes
Forced : No

Text #1
ID : 3
Format : VobSub
Codec ID : S_VOBSUB
Codec ID/Info : The same subtitle format used on DVDs
Language : English
Default : Yes
Forced : No

Text #2
ID : 4
Format : VobSub
Codec ID : S_VOBSUB
Codec ID/Info : The same subtitle format used on DVDs
Language : French
Default : No
Forced : No

Text #3
ID : 5
Format : VobSub
Codec ID : S_VOBSUB
Codec ID/Info : The same subtitle format used on DVDs
Language : German
Default : No
Forced : No

Text #4
ID : 6
Format : VobSub
Codec ID : S_VOBSUB
Codec ID/Info : The same subtitle format used on DVDs
Language : Italian
Default : No
Forced : No

Text #5
ID : 7
Format : VobSub
Codec ID : S_VOBSUB
Codec ID/Info : The same subtitle format used on DVDs
Language : Catalan
Default : No
Forced : No

Text #6
ID : 8
Format : VobSub
Codec ID : S_VOBSUB
Codec ID/Info : The same subtitle format used on DVDs
Language : Spanish
Default : No
Forced : No

Text #7
ID : 9
Format : VobSub
Codec ID : S_VOBSUB
Codec ID/Info : The same subtitle format used on DVDs
Language : Japanese
Default : No
Forced : No

Text #8
ID : 10
Format : VobSub
Codec ID : S_VOBSUB
Codec ID/Info : The same subtitle format used on DVDs
Language : Korean
Default : No
Forced : No

Menu
00:00:00.000 : en:Chapter 01
00:00:54.621 : en:Chapter 02
00:05:59.525 : en:Chapter 03
00:07:05.224 : en:Chapter 04
00:10:03.569 : en:Chapter 05
00:11:51.210 : en:Chapter 06
00:14:01.307 : en:Chapter 07
00:15:25.858 : en:Chapter 08
00:16:00.192 : en:Chapter 09
00:17:02.755 : en:Chapter 10
00:18:03.215 : en:Chapter 11
00:21:47.506 : en:Chapter 12
00:24:18.023 : en:Chapter 13
00:28:09.120 : en:Chapter 14
00:33:12.957 : en:Chapter 15
00:40:11.041 : en:Chapter 16
00:44:40.344 : en:Chapter 17
00:49:59.396 : en:Chapter 18
00:53:44.621 : en:Chapter 19
00:58:14.257 : en:Chapter 20
01:01:11.000 : en:Chapter 21
01:08:46.489 : en:Chapter 22
01:09:55.024 : en:Chapter 23
01:16:33.188 : en:Chapter 24
01:24:58.026 : en:Chapter 25
01:27:19.467 : en:Chapter 26
01:34:11.779 : en:Chapter 27
01:35:19.714 : en:Chapter 28
01:38:50.858 : en:Chapter 29
01:45:17.077 : en:Chapter 30
01:46:49.736 : en:Chapter 31
01:48:25.365 : en:Chapter 32
01:51:14.501 : en:Chapter 33
01:56:41.627 : en:Chapter 34

All screenshots taken from BDRip

Stéphane Denève, Liceu Grand Theater Orchestra - Paul Dukas: Ariane et Barbe-bleue (2013) [Blu-Ray]