Tags
Language
Tags

Pepper Adams - Conjuration: Fat Tuesday's Session (1984) [Reissue 1990]

Posted By: gribovar
Pepper Adams - Conjuration: Fat Tuesday's Session (1984) [Reissue 1990]

Pepper Adams - Conjuration: Fat Tuesday's Session (1984) [Reissue 1990]
EAC Rip | FLAC (image+.cue+log) - 437 MB | Covers (3 MB) included
Genre: Jazz | RAR 3% Rec. | Label: Reservoir Music (RSR CD 113)

The great baritonist Pepper Adams is teamed up with the adventurous trumpeter Kenny Wheeler and veteran pianist Hank Jones for this live quintet date. Wheeler, although often associated with the avant-garde, has never had any difficulty playing changes and his strong style clearly inspired Adams. Together they perform three of the baritonist's originals, Thad Jones "Tis," Wheeler's "Old Ballad," and the standard "Alone Together."
Tracklist:
01. Conjuration
02. Alone Together
03. Diabolique II
04. Claudette's Way
05. Dylan's Delight
06. Dr. Deep
07. Old Ballad
08. Quittin' Time
09. Dobbin
10. Tis

Total time: 01:09:12

Exact Audio Copy V0.99 prebeta 3 from 28. July 2007

Archivo Log de extracciones desde 29. Diciembre 2007, 23:00

Pepper Adams / Conjuration Fat Tuesday's session

Usar unidad : ATAPI DVD A DH18A1P Adapter: 0 ID: 0

Modo de Lectura : Seguro
Utilizar Corriente Exacta : Sн
Descartar Audio cachй : Sн
Utilizar los punteros C2 : No

Correcciуn de Desplazamiento de Lectura : 6
Sobreleer tanto en Lead-In como en Lead-Out : No
Rellenar las muestras faltantes con silencios : Sн
Eliminar silencios inicial y final : No
Se han usado muestras nulas en los cбlculos CRC : Sн
Interfaz usada : Interfaz ASPI externo instalado

Formato de Salida utilizado : Compresor definido por el usuario
Bitrate seleccionado : 768 kBit/s
Calidad : Alta
Aсadir Etiqueta ID3 : No
Compresor de linea de comandos : C:\Archivos de programa\Exact Audio Copy\FLAC\FLAC.EXE
Opciones adicionales en lнnea de comandos : -6 -V -T "ARTIST=%a" -T "TITLE=%t" -T "ALBUM=%g" -T "DATE=%y" -T "TRACKNUMBER=%n" -T "GENRE=%m" -T "COMMENT=%e" %s -o %d


TOC del CD extraido

Pista | Inicio | Duraciуn | Sector inicial | Sector final
––––––––––––––––––––––––––––––-
1 | 0:00.37 | 8:08.08 | 37 | 36644
2 | 8:08.45 | 8:19.67 | 36645 | 74136
3 | 16:28.37 | 8:04.53 | 74137 | 110489
4 | 24:33.15 | 7:37.35 | 110490 | 144799
5 | 32:10.50 | 6:44.27 | 144800 | 175126
6 | 38:55.02 | 7:44.00 | 175127 | 209926
7 | 46:39.02 | 7:16.05 | 209927 | 242631
8 | 53:55.07 | 6:56.55 | 242632 | 273886
9 | 60:51.62 | 5:44.53 | 273887 | 299739
10 | 66:36.40 | 2:35.32 | 299740 | 311396


Gama de estados y errores

Seleccionar gama

Nombre de Archivo J:\MIS DOCUMENTOS\Mi mъsica\Pepper Adams - Conjuration Fat Tuesday's session.wav

Nivel Pico 96.6 %
Gama de Calidad 100.0 %
Test CRC 496A36D2
Copiar CRC 496A36D2
Copia OK

Sin Errores

Final del Informe

[CUETools log; Date: 25.09.2019 19:01:53; Version: 2.1.4]
Pregap length 00:00:37.
[CTDB TOCID: f9YCpWYXp7xPegnMXf3Xr0AZMsA-] found.
Track | CTDB Status
1 | (9/9) Accurately ripped
2 | (9/9) Accurately ripped
3 | (9/9) Accurately ripped
4 | (9/9) Accurately ripped
5 | (9/9) Accurately ripped
6 | (9/9) Accurately ripped
7 | (9/9) Accurately ripped
8 | (9/9) Accurately ripped
9 | (9/9) Accurately ripped
10 | (9/9) Accurately ripped
[AccurateRip ID: 001cab23-00e1fe83-9810370a] found.
Track [ CRC | V2 ] Status
01 [f15c8ba5|c463390d] (0+3/3) Accurately ripped
02 [c6b51b00|9d2dad0f] (0+3/3) Accurately ripped
03 [f419b394|4bb03426] (0+3/3) Accurately ripped
04 [c35d246a|6e94e5ad] (0+3/3) Accurately ripped
05 [e65dee85|b4562e14] (0+3/3) Accurately ripped
06 [b8545907|2824c08c] (0+3/3) Accurately ripped
07 [7557bb61|15ee6df5] (0+3/3) Accurately ripped
08 [5f70c596|e9ea4b73] (0+3/3) Accurately ripped
09 [4a0e1f5b|053874b1] (0+3/3) Accurately ripped
10 [c5f70cfb|cde9a931] (0+3/3) Accurately ripped

Track Peak [ CRC32 ] [W/O NULL]
– 96,5 [496A36D2] [2CA30335]
01 96,5 [2CF35759] [1C71F917]
02 73,5 [3DEC75CC] [BD693BD2]
03 75,4 [BC4335CB] [657FBCEE]
04 76,0 [2D8B9F77] [A3D80DEA]
05 78,1 [0E3F8399] [1B4ACCB9]
06 84,2 [405BCBE8] [25768488]
07 62,0 [938CD9C3] [A7405AD2]
08 85,8 [1D6F2129] [582BAD94]
09 92,7 [D7F5440B] [599448F9]
10 87,7 [781F2C2C] [7C007A76]

See also:
Pepper Adams & Jimmy Knepp... Quintet (1958) [Reissue 2011]
Pepper Adams - Pepper [Recorded 1975-1986] (1996)

Thanks to the original releaser