Tags
Language
Tags

Pepper Adams - Pepper Adams Quintet (1957) [Reissue 1987]

Posted By: gribovar
Pepper Adams - Pepper Adams Quintet (1957) [Reissue 1987]

Pepper Adams - Pepper Adams Quintet (1957) [Reissue 1987]
EAC Rip | FLAC (tracks+.cue+log) - 189 MB | MP3 CBR 320 kbps (LAME 3.93) - 80 MB | Covers (8 MB) included
Genre: Jazz | RAR 3% Rec. | Label: V.S.O.P. Records (V.S.O J. #5 CD)

Pepper Adams ranked among modern jazz's finest baritone saxophonists. His mastery of the middle and lower registers and technical acumen enabled him to play the cumbersome baritone with a speed, facility, and style usually restricted to smaller horns. This '57 quintet date featured him in a more relaxed context with West Coast jazz types like trumpeter Stu Williamson and pianist Carl Perkins. Bassist Leroy Vinnegar added his famous "walking" lines and drummer Mel Lewis provided a steady, smooth rhythmic pace, while Adams contributed two originals and did three standards in his usual impeccable fashion.
Tracklist:
01. Unforgettable
02. Baubles, Bangles and Beads
03. Freddie Froo
04. My One and Only Love
05. Muezzin'

Total time: 30:43

Exact Audio Copy V0.99 prebeta 4 from 23. January 2008

EAC extraction logfile from 23. January 2010, 23:15

Pepper Adams / Pepper Adams Quintet

Used drive : HL-DT-STDVD-RAM GH22NP20 Adapter: 0 ID: 0

Read mode : Secure
Utilize accurate stream : Yes
Defeat audio cache : Yes
Make use of C2 pointers : No

Read offset correction : 102
Overread into Lead-In and Lead-Out : No
Fill up missing offset samples with silence : Yes
Delete leading and trailing silent blocks : No
Null samples used in CRC calculations : Yes
Used interface : Installed external ASPI interface
Gap handling : Appended to previous track

Used output format : User Defined Encoder
Selected bitrate : 320 kBit/s
Quality : High
Add ID3 tag : No
Command line compressor : C:\Program Files\Exact Audio Copy\Flac\flac.exe
Additional command line options : -V -8 -T "artist=%a" -T "title=%t" -T "album=%g" -T "date=%y" -T "tracknumber=%n" -T "genre=%m" %s


TOC of the extracted CD

Track | Start | Length | Start sector | End sector
––––––––––––––––––––––––––––-
1 | 0:01.00 | 6:24.39 | 75 | 28913
2 | 6:25.39 | 8:29.58 | 28914 | 67146
3 | 14:55.22 | 6:02.34 | 67147 | 94330
4 | 20:57.56 | 3:52.00 | 94331 | 111730
5 | 24:49.56 | 5:54.18 | 111731 | 138298


Track 1

Filename D:\music\Musicgate's rips\Pepper Adams - Pepper Adams Quintet (1957 - 1987 V.S.O.P. Rec.)\01 - Unforgettable.wav

Pre-gap length 0:00:03.00

Peak level 83.5 %
Track quality 99.9 %
Test CRC 3A0111C9
Copy CRC 3A0111C9
Track not present in AccurateRip database
Copy OK

Track 2

Filename D:\music\Musicgate's rips\Pepper Adams - Pepper Adams Quintet (1957 - 1987 V.S.O.P. Rec.)\02 - Baubles, Bangles And Beads.wav

Pre-gap length 0:00:01.92

Peak level 81.5 %
Track quality 100.0 %
Test CRC 7C48DE46
Copy CRC 7C48DE46
Track not present in AccurateRip database
Copy OK

Track 3

Filename D:\music\Musicgate's rips\Pepper Adams - Pepper Adams Quintet (1957 - 1987 V.S.O.P. Rec.)\03 - Freddie Froo.wav

Pre-gap length 0:00:02.17

Peak level 78.1 %
Track quality 100.0 %
Test CRC 705B9FCA
Copy CRC 705B9FCA
Track not present in AccurateRip database
Copy OK

Track 4

Filename D:\music\Musicgate's rips\Pepper Adams - Pepper Adams Quintet (1957 - 1987 V.S.O.P. Rec.)\04 - My One And Only Love.wav

Pre-gap length 0:00:01.05

Peak level 62.6 %
Track quality 100.0 %
Test CRC 650BDA0B
Copy CRC 650BDA0B
Track not present in AccurateRip database
Copy OK

Track 5

Filename D:\music\Musicgate's rips\Pepper Adams - Pepper Adams Quintet (1957 - 1987 V.S.O.P. Rec.)\05 - Muezzin'.wav

Pre-gap length 0:00:01.18

Peak level 92.1 %
Track quality 100.0 %
Test CRC D3AA1EEB
Copy CRC D3AA1EEB
Track not present in AccurateRip database
Copy OK


None of the tracks are present in the AccurateRip database

No errors occurred

End of status report

[CUETools log; Date: 14.04.2020 22:33:57; Version: 2.1.4]
Pregap length 00:01:00.
[CTDB TOCID: 3XgUX3Egvai18dqF.UclISz.T_4-] found.
Track | CTDB Status
1 | (3/3) Accurately ripped
2 | (3/3) Accurately ripped
3 | (3/3) Accurately ripped
4 | (3/3) Accurately ripped
5 | (3/3) Accurately ripped
[AccurateRip ID: 0006b8b1-001ee69d-4d073205] found.
Track [ CRC | V2 ] Status
01 [3d83f3b0|30e2f677] (0+1/1) Accurately ripped
02 [580e5623|e2cf595a] (0+1/1) Accurately ripped
03 [efebda6f|d88469f5] (0+1/1) Accurately ripped
04 [322a8f23|e39d37bd] (0+1/1) Accurately ripped
05 [6ed1518e|143ab453] (0+1/1) Accurately ripped

Track Peak [ CRC32 ] [W/O NULL] [ LOG ]
– 92,1 [108297B7] [12D332EA]
01 83,5 [3A0111C9] [8051E68B] CRC32
02 81,5 [7C48DE46] [984ABB2F] CRC32
03 78,1 [705B9FCA] [24DEBC13] CRC32
04 62,6 [650BDA0B] [59034108] CRC32
05 92,1 [D3AA1EEB] [9B67EC58] CRC32

Thanks to Musicgate

See also:
Pepper Adams & Jimmy Knepp... Quintet (1958) [Reissue 2011]
Pepper Adams - Conjuration: Fa... Session (1984) [Reissue 1990]
Pepper Adams - Pepper [Recorded 1975-1986] (1996)